<?xml version="1.0" standalone="no"?>
<!DOCTYPE svg PUBLIC "-//W3C//DTD SVG 1.1//EN" "http://www.w3.org/Graphics/SVG/1.1/DTD/svg11.dtd" >
<svg xmlns="http://www.w3.org/2000/svg">
<metadata>Generated by IcoMoon</metadata>
<defs>
<font id="happy-icons" horiz-adv-x="1024">
<font-face units-per-em="1024" ascent="960" descent="-64" />
<missing-glyph horiz-adv-x="1024" />
<glyph unicode="&#x20;" horiz-adv-x="512" d="" />
<glyph unicode="&#xe900;" glyph-name="3d-rotate" d="M512 611.2c-9.6 0-16-6.4-16-16s6.4-16 16-16c281.6 0 480-76.8 480-144 0-54.4-121.6-112-310.4-134.4 3.2 48 6.4 96 6.4 147.2 0 9.6-6.4 16-16 16s-16-6.4-16-16c0-54.4-3.2-102.4-6.4-150.4-41.6-3.2-89.6-6.4-137.6-6.4s-92.8 3.2-137.6 6.4c-6.4 48-6.4 96-6.4 150.4 0 281.6 76.8 480 144 480 41.6 0 83.2-70.4 112-185.6l-57.6 25.6c-6.4 3.2-16 0-22.4-6.4-3.2-6.4 0-16 6.4-22.4l108.8-51.2 48 108.8c3.2 9.6 0 16-6.4 22.4-6.4 3.2-16 0-22.4-6.4l-25.6-57.6c-28.8 128-83.2 204.8-140.8 204.8-115.2 0-176-262.4-176-512 0-48 3.2-99.2 6.4-147.2-188.8 22.4-310.4 80-310.4 134.4 0 41.6 70.4 83.2 185.6 112l-25.6-57.6c-3.2-6.4 0-16 6.4-22.4 3.2 0 3.2 0 6.4 0 6.4 0 12.8 3.2 16 9.6l51.2 108.8-108.8 48c-6.4 3.2-16 0-22.4-6.4-3.2-9.6 0-16 6.4-22.4l57.6-25.6c-134.4-32-208-83.2-208-144 0-89.6 160-147.2 345.6-166.4 25.6-182.4 83.2-332.8 169.6-332.8s144 150.4 166.4 332.8c185.6 22.4 345.6 76.8 345.6 166.4 0 115.2-262.4 176-512 176zM512-32c-51.2 0-108.8 115.2-131.2 297.6 44.8-3.2 89.6-6.4 131.2-6.4s89.6 3.2 131.2 6.4c-22.4-182.4-80-297.6-131.2-297.6z" />
<glyph unicode="&#xe901;" glyph-name="degree" d="M326.4 582.4c-12.8 0-16 3.2-22.4 6.4-6.4 6.4-6.4 9.6-6.4 19.2 0 3.2 0 6.4 0 6.4-3.2 0-3.2 3.2-9.6 3.2-3.2 0-6.4 0-6.4-3.2 0 0-3.2-3.2-3.2-6.4 0-9.6 3.2-22.4 12.8-28.8s22.4-12.8 41.6-12.8c16 0 28.8 3.2 38.4 12.8s12.8 22.4 12.8 41.6v6.4c0 19.2-6.4 35.2-25.6 41.6 6.4 3.2 12.8 9.6 16 16s6.4 16 6.4 28.8c0 28.8-16 44.8-48 44.8-9.6 0-19.2 0-25.6-3.2-6.4-12.8-12.8-16-16-19.2-3.2-6.4-6.4-9.6-6.4-12.8-3.2-6.4-3.2-9.6-3.2-16 0-3.2 0-6.4 3.2-9.6s3.2 0 9.6 0c6.4 0 9.6 3.2 9.6 9.6s3.2 12.8 6.4 16c3.2 6.4 12.8 6.4 22.4 6.4 19.2 0 28.8-9.6 28.8-28.8 0-12.8-3.2-19.2-6.4-22.4-6.4-6.4-12.8-6.4-22.4-6.4-6.4 0-6.4-3.2-6.4-9.6s-6.4-9.6 0-9.6c22.4 0 25.6-9.6 25.6-32v-6.4c0-22.4-3.2-32-25.6-32zM473.6 732.8c9.6 0 12.8-3.2 19.2-6.4s6.4-9.6 6.4-19.2c0-6.4 3.2-9.6 9.6-9.6s9.6 3.2 9.6 9.6c0 12.8-6.4 22.4-16 32s-22.4 12.8-41.6 12.8-22.4-6.4-32-16c-9.6-6.4-12.8-22.4-12.8-41.6v-76.8c0-19.2 3.2-32 12.8-41.6s22.4-12.8 38.4-12.8c16 0 25.6 3.2 35.2 12.8s9.6 22.4 9.6 41.6v6.4c0 35.2-3.2 51.2-38.4 51.2-16 0-25.6-6.4-25.6-16v35.2c0 25.6 3.2 38.4 25.6 38.4zM480 656c22.4 0 32-12.8 32-35.2v-6.4c0-25.6-9.6-35.2-32-35.2s-32 12.8-32 35.2v6.4c0 25.6 9.6 35.2 32 35.2zM601.6 563.2c16 0 38.4 3.2 48 12.8s22.4 22.4 22.4 41.6v76.8c0 19.2-12.8 32-22.4 41.6s-25.6 12.8-44.8 12.8c-16 0-32-3.2-44.8-12.8-6.4-6.4-16-22.4-16-41.6v-76.8c0-19.2 6.4-32 16-41.6s25.6-12.8 41.6-12.8zM576 694.4c0 25.6 6.4 35.2 28.8 35.2 9.6 0 19.2-3.2 25.6-9.6s9.6-12.8 9.6-25.6v-76.8c0-12.8-6.4-22.4-9.6-28.8s-12.8-9.6-22.4-9.6c-22.4 0-32 12.8-32 35.2v80zM601.6 646.4c3.2 0 6.4 0 6.4 3.2 3.2 3.2 3.2 3.2 3.2 6.4s0 6.4-3.2 6.4-3.2 3.2-6.4 3.2-6.4 0-6.4-3.2-3.2-3.2-3.2-6.4 0-6.4 3.2-6.4 3.2-3.2 6.4-3.2zM720 697.6c6.4 6.4 6.4 9.6 6.4 16v16c0 6.4-3.2 12.8-6.4 16-6.4 6.4-9.6 6.4-19.2 6.4s-12.8-3.2-19.2-6.4c-6.4-6.4-6.4-9.6-6.4-16v-12.8c0-6.4 3.2-12.8 6.4-16s9.6-6.4 19.2-6.4c9.6-3.2 12.8 0 19.2 3.2zM688 716.8v12.8c0 3.2 0 6.4 3.2 9.6s6.4 3.2 9.6 3.2c3.2 0 6.4 0 9.6-3.2s3.2-6.4 3.2-9.6v-12.8c0-3.2 0-6.4-3.2-9.6s-6.4-3.2-9.6-3.2c-3.2 0-6.4 0-9.6 3.2-3.2 0-3.2 3.2-3.2 9.6zM752 675.2c-9.6 3.2-16-3.2-19.2-12.8s3.2-16 12.8-19.2c150.4-38.4 246.4-115.2 246.4-195.2 0-112-185.6-208-422.4-224-9.6 0-16-9.6-16-16 0-9.6 6.4-16 16-16 0 0 0 0 0 0 259.2 0 454.4 124.8 454.4 256 0 96-105.6 182.4-272 227.2zM384 278.4c-6.4-6.4-6.4-16 0-22.4l25.6-25.6c-217.6 22.4-377.6 112-377.6 217.6 0 70.4 73.6 137.6 198.4 182.4 9.6 3.2 12.8 12.8 9.6 19.2 0 6.4-9.6 12.8-19.2 9.6-137.6-48-220.8-128-220.8-211.2 0-124.8 172.8-217.6 416-249.6l-32-32c-6.4-6.4-6.4-16 0-22.4 3.2-3.2 6.4-3.2 12.8-3.2 3.2 0 9.6 0 12.8 3.2l70.4 70.4-70.4 70.4c-9.6 0-19.2 0-25.6-6.4z" />
<glyph unicode="&#xe902;" glyph-name="accordion-horizontal" horiz-adv-x="1408" d="M220.8-28.8c3.2-22.4 22.4-35.2 44.8-35.2 3.2 0 9.6 0 12.8 3.2l262.4 73.6c12.8 3.2 22.4 12.8 28.8 22.4 6.4 12.8 6.4 25.6 3.2 35.2l-217.6 726.4c-6.4 25.6-35.2 38.4-57.6 32l-262.4-73.6c-12.8-3.2-22.4-12.8-28.8-22.4-6.4-12.8-9.6-25.6-3.2-38.4l217.6-723.2zM35.2 716.8c3.2 3.2 6.4 6.4 9.6 6.4l262.4 76.8c0 0 3.2 0 3.2 0 6.4 0 12.8-3.2 16-12.8l217.6-723.2c0-3.2 0-9.6 0-12.8-3.2-3.2-6.4-6.4-9.6-6.4l-265.6-76.8c-9.6-3.2-16 3.2-19.2 9.6l-217.6 726.4c0 3.2 0 9.6 3.2 12.8zM1372.8 752l-256 76.8c-25.6 6.4-51.2-6.4-60.8-32l-224-723.2c0-9.6 0-22.4 6.4-35.2s16-19.2 28.8-22.4l256-76.8c3.2 0 9.6-3.2 12.8-3.2 22.4 0 38.4 12.8 44.8 35.2l224 723.2c6.4 9.6 3.2 22.4-3.2 32-6.4 12.8-16 22.4-28.8 25.6zM1376 700.8l-224-723.2c-3.2-9.6-12.8-12.8-19.2-9.6l-256 76.8c-3.2 0-6.4 3.2-9.6 6.4-3.2 6.4-3.2 12.8-3.2 16l224 723.2c3.2 3.2 9.6 9.6 16 9.6 0 0 3.2 0 3.2 0l256-76.8c3.2 0 6.4-3.2 9.6-6.4 3.2-6.4 3.2-12.8 3.2-16zM704 0v928c0 9.6-6.4 16-16 16s-16-6.4-16-16v-928c0-9.6 6.4-16 16-16s16 6.4 16 16z" />
<glyph unicode="&#xe903;" glyph-name="accordion-vertical" d="M128 960c-9.6 0-16-6.4-16-16s6.4-16 16-16h736c9.6 0 16 6.4 16 16s-6.4 16-16 16h-736zM976 800h-928c-25.6 0-48-22.4-48-48v-608c0-25.6 22.4-48 48-48h928c25.6 0 48 22.4 48 48v608c0 25.6-22.4 48-48 48zM992 144c0-9.6-6.4-16-16-16h-928c-9.6 0-16 6.4-16 16v608c0 9.6 6.4 16 16 16h928c9.6 0 16-6.4 16-16v-608zM864-32h-736c-9.6 0-16-6.4-16-16s6.4-16 16-16h736c9.6 0 16 6.4 16 16s-6.4 16-16 16z" />
<glyph unicode="&#xe904;" glyph-name="alarm-clock" d="M512 800c-236.8 0-432-192-432-432 0-112 41.6-211.2 112-288l-118.4-118.4c-6.4-6.4-6.4-16 0-22.4 3.2 0 6.4-3.2 12.8-3.2s9.6 0 12.8 3.2l115.2 115.2c76.8-70.4 182.4-118.4 297.6-118.4s220.8 44.8 300.8 121.6l115.2-118.4c3.2-3.2 6.4-6.4 12.8-6.4 3.2 0 9.6 0 9.6 3.2 6.4 6.4 6.4 16 0 22.4l-115.2 118.4c67.2 76.8 112 176 112 288-3.2 243.2-195.2 435.2-435.2 435.2zM512-32c-220.8 0-400 179.2-400 400s179.2 400 400 400 400-179.2 400-400-179.2-400-400-400zM281.6 928c54.4 0 99.2-35.2 115.2-86.4 0-9.6 9.6-12.8 19.2-9.6s12.8 12.8 9.6 19.2c-19.2 64-76.8 108.8-144 108.8-86.4 0-153.6-67.2-153.6-153.6 0-35.2 12.8-70.4 38.4-96 3.2-6.4 6.4-6.4 9.6-6.4s6.4 0 9.6 3.2c6.4 6.4 6.4 16 3.2 22.4-19.2 22.4-28.8 48-28.8 76.8 0 67.2 54.4 121.6 121.6 121.6zM835.2 710.4c3.2-3.2 6.4-3.2 9.6-3.2s9.6 3.2 12.8 6.4c22.4 28.8 35.2 60.8 35.2 96 0 83.2-67.2 153.6-153.6 153.6-67.2 0-124.8-44.8-144-108.8-3.2-9.6 3.2-16 9.6-19.2 9.6-3.2 16 3.2 19.2 9.6 16 48 60.8 83.2 115.2 83.2 67.2 0 121.6-54.4 121.6-121.6 0-28.8-9.6-54.4-28.8-76.8-6.4-3.2-3.2-16 3.2-19.2zM528 688c-9.6 0-16-6.4-16-16v-284.8l-137.6-128c-6.4-6.4-6.4-16 0-22.4 3.2-3.2 6.4-6.4 12.8-6.4 3.2 0 6.4 0 9.6 3.2l144 134.4c3.2 3.2 6.4 6.4 6.4 12.8v291.2c-3.2 9.6-9.6 16-19.2 16z" />
<glyph unicode="&#xe905;" glyph-name="alien-gun" horiz-adv-x="1248" d="M80 384c44.8 0 80 35.2 80 80s-35.2 80-80 80-80-35.2-80-80 35.2-80 80-80zM80 512c25.6 0 48-22.4 48-48s-22.4-48-48-48-48 22.4-48 48 22.4 48 48 48zM764.8 576c-60.8 0-112-51.2-112-112s51.2-112 112-112 112 51.2 112 112-48 112-112 112zM764.8 384c-44.8 0-80 35.2-80 80s35.2 80 80 80 80-35.2 80-80-35.2-80-80-80zM1152 544c0 0 0 0 0 0-41.6 105.6-160 192-307.2 217.6 0 3.2 3.2 6.4 3.2 6.4v64c0 9.6-6.4 16-16 16s-16-6.4-16-16v-64c0 0 0-3.2 0-3.2-19.2 3.2-41.6 3.2-64 3.2 0 0 0 0 0 0v0 160c0 9.6-6.4 16-16 16s-16-6.4-16-16v-160c0 0 0 0 0 0-22.4 0-44.8-3.2-67.2-9.6 3.2 3.2 3.2 6.4 3.2 9.6v64c0 9.6-6.4 16-16 16s-16-6.4-16-16v-64c0-6.4 3.2-9.6 9.6-12.8-112-25.6-204.8-83.2-252.8-163.2-28.8 25.6-64 41.6-102.4 48-22.4 3.2-38.4-12.8-38.4-38.4v-121.6h-32c-9.6 0-16-6.4-16-16s6.4-16 16-16h32v-121.6c0-25.6 16-38.4 32-38.4 0 0 3.2 0 6.4 0 38.4 6.4 73.6 22.4 102.4 48 67.2-105.6 214.4-179.2 374.4-179.2 9.6 0 19.2 0 28.8 0 0-3.2 0-3.2 0-6.4l70.4-153.6c19.2-41.6 60.8-64 102.4-64 12.8 0 28.8 3.2 41.6 9.6 28.8 12.8 51.2 32 60.8 60.8 9.6 25.6 9.6 54.4-3.2 80l-64 131.2c0 0 0 0 0 3.2 64 35.2 115.2 80 144 134.4h16c54.4 0 96 41.6 96 96s-41.6 96-96 96zM272 320c0 0 0 0 0 0v0zM272 320c0 0 0 3.2 0 6.4v278.4c0 3.2 0 6.4 3.2 6.4 73.6-9.6 124.8-70.4 124.8-144 0-76.8-54.4-137.6-128-147.2zM966.4 201.6l64-131.2c6.4-16 9.6-38.4 0-54.4-6.4-19.2-22.4-35.2-44.8-41.6-41.6-16-89.6 0-105.6 38.4l-70.4 150.4c57.6 6.4 108.8 19.2 156.8 38.4 0 0 0 0 0 0zM752 192c-156.8 0-294.4 67.2-352 172.8 19.2 28.8 32 64 32 99.2 0 38.4-12.8 70.4-32 99.2 57.6 102.4 198.4 172.8 352 172.8 211.2 0 380.8-121.6 380.8-272s-169.6-272-380.8-272zM1152 384v0c6.4 25.6 12.8 51.2 12.8 80 0 16-3.2 32-6.4 48 32-3.2 57.6-32 57.6-64 0-35.2-28.8-64-64-64z" />
<glyph unicode="&#xe906;" glyph-name="alien" horiz-adv-x="896" d="M355.2-25.6c25.6-25.6 57.6-38.4 92.8-38.4s67.2 12.8 92.8 38.4l224 224c86.4 86.4 131.2 198.4 131.2 320s-48 233.6-134.4 316.8c-86.4 80-195.2 124.8-313.6 124.8s-227.2-44.8-313.6-124.8c-86.4-86.4-134.4-198.4-134.4-320s44.8-233.6 131.2-320l224-220.8zM156.8 809.6c80 76.8 182.4 118.4 291.2 118.4s211.2-41.6 291.2-118.4c80-76.8 124.8-182.4 124.8-294.4s-41.6-217.6-121.6-297.6l-224-224c-38.4-38.4-102.4-38.4-140.8 0l-224 224c-80 83.2-121.6 185.6-121.6 297.6s44.8 217.6 124.8 294.4zM505.6 224c12.8 0 22.4-3.2 35.2-3.2 70.4 0 137.6 28.8 182.4 80 54.4 60.8 80 144 70.4 243.2 0 16-12.8 25.6-28.8 28.8-86.4 9.6-163.2-19.2-217.6-76.8-54.4-60.8-80-144-70.4-243.2 0-16 12.8-25.6 28.8-28.8zM569.6 473.6c41.6 44.8 96 70.4 160 70.4 9.6 0 19.2 0 32-3.2 9.6-86.4-12.8-163.2-60.8-214.4-41.6-44.8-96-70.4-160-70.4-9.6 0-19.2 0-32 3.2-9.6 83.2 12.8 160 60.8 214.4zM348.8 220.8c12.8 0 22.4 0 35.2 3.2s25.6 12.8 25.6 28.8c9.6 96-16 179.2-70.4 240-48 51.2-112 80-182.4 80-12.8 0-22.4 0-35.2-3.2s-25.6-12.8-25.6-28.8c-9.6-96 16-179.2 70.4-240 48-51.2 112-80 182.4-80zM128 540.8c9.6 0 19.2 3.2 32 3.2 64 0 118.4-25.6 160-70.4 48-54.4 70.4-131.2 60.8-217.6-76.8-9.6-144 16-188.8 67.2-51.2 54.4-73.6 131.2-64 217.6z" />
<glyph unicode="&#xe907;" glyph-name="anchor" horiz-adv-x="1088" d="M16 416h80c6.4-236.8 195.2-425.6 432-435.2v-12.8c0-9.6 6.4-16 16-16s16 6.4 16 16v12.8c236.8 9.6 425.6 198.4 432 435.2h80c6.4 0 12.8 3.2 16 9.6s0 12.8-3.2 16l-96 96c-6.4 6.4-16 6.4-22.4 0l-96-96c-6.4-3.2-6.4-9.6-6.4-16s9.6-9.6 16-9.6h80c-6.4-217.6-182.4-393.6-400-403.2v595.2h96c9.6 0 16 6.4 16 16s-6.4 16-16 16h-96v89.6c54.4 6.4 96 54.4 96 112 0 60.8-51.2 112-112 112s-112-51.2-112-112c0-54.4 41.6-102.4 96-108.8v-92.8h-96c-9.6 0-16-6.4-16-16s6.4-16 16-16h96v-595.2c-217.6 9.6-393.6 185.6-400 403.2h80c6.4 0 12.8 3.2 16 9.6s0 12.8-3.2 16l-96 96c-6.4 6.4-16 6.4-22.4 0l-96-96c-6.4-3.2-6.4-9.6-6.4-16s9.6-9.6 16-9.6zM976 505.6l57.6-57.6h-115.2l57.6 57.6zM464 841.6c0 44.8 35.2 80 80 80s80-35.2 80-80-35.2-80-80-80-80 35.2-80 80zM112 505.6l57.6-57.6h-115.2l57.6 57.6z" />
<glyph unicode="&#xe908;" glyph-name="android" horiz-adv-x="832" d="M160 208c0-25.6 22.4-48 48-48h48v-160c0-35.2 28.8-64 64-64s64 28.8 64 64v160h64v-160c0-35.2 28.8-64 64-64s64 28.8 64 64v160h48c25.6 0 48 22.4 48 48v416c0 25.6-22.4 48-48 48h-416c-25.6 0-48-22.4-48-48v-416zM352 0c0-19.2-12.8-32-32-32s-32 12.8-32 32v160h64v-160zM544 0c0-19.2-12.8-32-32-32s-32 12.8-32 32v160h64v-160zM192 624c0 9.6 6.4 16 16 16h416c9.6 0 16-6.4 16-16v-416c0-9.6-6.4-16-16-16h-416c-9.6 0-16 6.4-16 16v416zM128 384v224c0 35.2-28.8 64-64 64s-64-28.8-64-64v-224c0-35.2 28.8-64 64-64s64 28.8 64 64zM32 384v224c0 19.2 12.8 32 32 32s32-12.8 32-32v-224c0-19.2-12.8-32-32-32s-32 12.8-32 32zM832 384v224c0 35.2-28.8 64-64 64s-64-28.8-64-64v-224c0-35.2 28.8-64 64-64s64 28.8 64 64zM736 384v224c0 19.2 12.8 32 32 32s32-12.8 32-32v-224c0-19.2-12.8-32-32-32s-32 12.8-32 32zM278.4 784c0-32 25.6-57.6 57.6-57.6s57.6 25.6 57.6 57.6-25.6 57.6-57.6 57.6-57.6-25.6-57.6-57.6zM361.6 784c0-12.8-12.8-25.6-25.6-25.6s-25.6 12.8-25.6 25.6 12.8 25.6 25.6 25.6 25.6-12.8 25.6-25.6zM438.4 784c0-32 25.6-57.6 57.6-57.6s57.6 25.6 57.6 57.6-25.6 57.6-57.6 57.6-57.6-25.6-57.6-57.6zM521.6 784c0-12.8-12.8-25.6-25.6-25.6s-25.6 12.8-25.6 25.6 12.8 25.6 25.6 25.6 25.6-12.8 25.6-25.6zM160 704c0-9.6 6.4-16 16-16s16 6.4 16 16c0 124.8 99.2 224 224 224s224-99.2 224-224v0c0-9.6 6.4-16 16-16s16 6.4 16 16c0 0 0 3.2 0 3.2-3.2 140.8-115.2 252.8-256 252.8s-256-115.2-256-256z" />
<glyph unicode="&#xe909;" glyph-name="angle-down" d="M512 192c-3.2 0-9.6 0-12.8 3.2l-480 480c-6.4 6.4-6.4 16 0 22.4s16 6.4 22.4 0l470.4-467.2 467.2 470.4c6.4 6.4 16 6.4 22.4 0s6.4-16 0-22.4l-480-480c0-6.4-6.4-6.4-9.6-6.4z" />
<glyph unicode="&#xe90a;" glyph-name="angle-left" d="M752-48c-3.2 0-9.6 0-12.8 3.2l-480 480c-6.4 6.4-6.4 16 0 22.4l480 480c6.4 6.4 16 6.4 22.4 0s6.4-16 0-22.4l-467.2-467.2 467.2-467.2c6.4-6.4 6.4-16 0-22.4 0-6.4-6.4-6.4-9.6-6.4z" />
<glyph unicode="&#xe90b;" glyph-name="angle-right" d="M272-48c-3.2 0-9.6 0-12.8 3.2-6.4 6.4-6.4 16 0 22.4l470.4 470.4-470.4 467.2c-3.2 6.4-3.2 19.2 0 25.6s16 6.4 22.4 0l480-480c6.4-6.4 6.4-16 0-22.4l-480-480c0-6.4-6.4-6.4-9.6-6.4z" />
<glyph unicode="&#xe90c;" glyph-name="angle-up" d="M992 192c-3.2 0-9.6 0-12.8 3.2l-467.2 470.4-467.2-470.4c-6.4-6.4-16-6.4-22.4 0s-6.4 16 0 22.4l480 480c6.4 6.4 16 6.4 22.4 0l480-480c6.4-6.4 6.4-16 0-22.4-3.2-3.2-9.6-3.2-12.8-3.2z" />
<glyph unicode="&#xe90d;" glyph-name="apple" d="M512 960c-281.6 0-512-230.4-512-512s230.4-512 512-512 512 230.4 512 512-230.4 512-512 512zM512-32c-265.6 0-480 214.4-480 480s214.4 480 480 480 480-214.4 480-480-214.4-480-480-480zM758.4 352c-41.6 22.4-67.2 54.4-67.2 92.8-3.2 38.4 16 73.6 54.4 102.4 3.2 3.2 6.4 6.4 6.4 12.8 0 3.2 0 9.6-3.2 12.8-41.6 51.2-92.8 60.8-128 60.8-19.2 0-41.6-3.2-60.8-9.6-6.4-3.2-9.6-3.2-12.8-6.4-16-6.4-25.6-9.6-38.4-6.4-3.2 0-9.6 3.2-12.8 6.4-16 6.4-41.6 16-73.6 16-16 0-35.2-3.2-51.2-9.6-51.2-16-92.8-60.8-108.8-115.2-16-57.6-6.4-131.2 22.4-198.4 12.8-28.8 25.6-54.4 41.6-76.8 32-44.8 64-64 99.2-64 3.2 0 6.4 0 9.6 0 16 0 28.8 6.4 38.4 9.6s19.2 6.4 32 9.6c25.6 3.2 38.4 0 57.6-9.6 12.8-3.2 25.6-9.6 41.6-12.8 70.4-12.8 137.6 89.6 160 153.6v3.2c9.6 19.2-3.2 25.6-6.4 28.8zM611.2 201.6c-12.8 3.2-25.6 6.4-35.2 9.6-22.4 9.6-44.8 16-76.8 9.6-16-3.2-28.8-9.6-38.4-12.8s-19.2-6.4-28.8-9.6c-25.6-3.2-51.2 12.8-76.8 51.2-16 22.4-28.8 44.8-38.4 70.4-25.6 57.6-32 124.8-19.2 176 12.8 44.8 44.8 80 83.2 92.8 12.8 3.2 28.8 6.4 41.6 6.4 25.6 0 44.8-9.6 60.8-16 6.4-3.2 12.8-6.4 16-6.4 22.4-6.4 38.4 0 60.8 6.4 3.2 3.2 9.6 3.2 12.8 6.4 16 6.4 32 9.6 48 9.6 25.6 0 60.8-6.4 92.8-35.2-38.4-32-57.6-76.8-54.4-121.6s28.8-86.4 73.6-112c-25.6-57.6-76.8-131.2-121.6-124.8zM521.6 640v0c67.2 0 128 57.6 131.2 128 0 6.4 0 22.4 0 28.8-3.2 3.2-6.4 9.6-12.8 9.6 0 0-3.2 0-6.4 0s-16 0-16-3.2c-54.4-9.6-115.2-51.2-118.4-118.4 0-6.4 0-28.8 0-35.2 6.4-3.2 12.8-9.6 22.4-9.6zM537.6 688c0 41.6 41.6 73.6 83.2 83.2 0 0 0 0 0-3.2-3.2-44.8-41.6-86.4-83.2-96 0 6.4 0 12.8 0 16z" />
<glyph unicode="&#xe90e;" glyph-name="arrow-left" d="M137.6 416h832c25.6 0 44.8 22.4 44.8 48s-19.2 48-44.8 48h-832l275.2 272c16 16 16 44.8 0 60.8s-44.8 16-60.8 0l-352-348.8c-16-16-16-44.8 0-60.8l348.8-348.8c9.6-9.6 19.2-12.8 32-12.8 9.6 0 22.4 3.2 32 12.8 16 16 16 41.6 0 60.8l-275.2 268.8z" />
<glyph unicode="&#xe90f;" glyph-name="arrow-right" d="M0 464c0-22.4 19.2-48 41.6-48h809.6l-259.2-256c-16-16-16-41.6 0-57.6 9.6-9.6 19.2-12.8 28.8-12.8s22.4 3.2 28.8 12.8l329.6 329.6c16 16 16 41.6 0 57.6l-329.6 332.8c-16 16-41.6 16-57.6 0s-16-38.4 0-54.4l259.2-256h-809.6c-22.4 0-41.6-25.6-41.6-48z" />
<glyph unicode="&#xe910;" glyph-name="arrow-zoom-out" d="M400 352l-336-332.8v236.8c0 9.6-6.4 16-16 16s-16-6.4-16-16v-272c0-9.6 6.4-16 16-16h272c9.6 0 16 6.4 16 16s-6.4 16-16 16h-230.4l329.6 329.6c6.4 6.4 6.4 16 0 22.4s-12.8 6.4-19.2 0zM976 928h-272c-9.6 0-16-6.4-16-16s6.4-16 16-16h236.8l-342.4-342.4c-6.4-6.4-6.4-16 0-22.4 3.2-3.2 6.4-3.2 12.8-3.2s9.6 0 12.8 3.2l336 339.2v-230.4c0-9.6 6.4-16 16-16s16 6.4 16 16v272c0 9.6-6.4 16-16 16z" />
<glyph unicode="&#xe911;" glyph-name="arrow-corner" d="M1024 406.4v0c-144 0-284.8 57.6-387.2 160l-112 112-108.8-112c-102.4-102.4-243.2-160-387.2-160h-28.8v-41.6h1024v41.6z" />
<glyph unicode="&#xe912;" glyph-name="arrow-down" d="M828.8 300.8c-6.4 6.4-16 6.4-22.4 0l-294.4-294.4v921.6c0 9.6-6.4 16-16 16s-16-6.4-16-16v-921.6l-291.2 291.2c-6.4 6.4-16 6.4-22.4 0s-6.4-16 0-22.4l320-320c0 0 3.2-3.2 6.4-3.2s3.2 0 6.4 0 3.2 0 6.4 0 3.2 3.2 6.4 3.2l320 320c0 6.4 0 19.2-3.2 25.6z" />
<glyph unicode="&#xe913;" glyph-name="arrow-left1" d="M992 448h-921.6l291.2 291.2c6.4 6.4 6.4 16 0 22.4s-16 6.4-22.4 0l-320-320c0 0-3.2-3.2-3.2-6.4-3.2-3.2-3.2-9.6 0-12.8 0-3.2 3.2-3.2 3.2-6.4l320-320c3.2 0 9.6 0 12.8 0s9.6 0 12.8 3.2c6.4 6.4 6.4 16 0 22.4l-294.4 294.4h921.6c9.6 0 16 6.4 16 16s-6.4 16-16 16z" />
<glyph unicode="&#xe914;" glyph-name="arrow-right1" d="M1008 425.6c3.2 3.2 3.2 9.6 0 12.8 0 3.2-3.2 3.2-3.2 6.4l-320 320c-6.4 6.4-16 6.4-22.4 0s-6.4-16 0-22.4l291.2-291.2h-921.6c-9.6 0-16-6.4-16-16s6.4-19.2 16-19.2h921.6l-291.2-291.2c-6.4-6.4-6.4-16 0-22.4 0-6.4 6.4-6.4 9.6-6.4s9.6 0 12.8 3.2l320 320c0 3.2 0 3.2 3.2 6.4z" />
<glyph unicode="&#xe915;" glyph-name="arrow-up" d="M860.8 620.8l-320 320c0 0-3.2 3.2-6.4 3.2-3.2 3.2-9.6 3.2-12.8 0-3.2 0-3.2-3.2-6.4-3.2l-320-320c-6.4-6.4-6.4-16 0-22.4s16-6.4 22.4 0l294.4 291.2v-921.6c0-9.6 6.4-16 16-16s16 6.4 16 16v921.6l291.2-291.2c3.2-3.2 6.4-3.2 12.8-3.2s9.6 0 12.8 3.2c3.2 3.2 3.2 16 0 22.4z" />
<glyph unicode="&#xe916;" glyph-name="article" horiz-adv-x="1216" d="M1168 960h-1120c-25.6 0-48-22.4-48-48v-928c0-25.6 22.4-48 48-48h1120c25.6 0 48 22.4 48 48v928c0 25.6-22.4 48-48 48zM1184-16c0-9.6-6.4-16-16-16h-1120c-9.6 0-16 6.4-16 16v928c0 9.6 6.4 16 16 16h1120c9.6 0 16-6.4 16-16v-928zM560 448h-352c-25.6 0-48-22.4-48-48v-256c0-25.6 22.4-48 48-48h352c25.6 0 48 22.4 48 48v256c0 25.6-22.4 48-48 48zM576 144c0-9.6-6.4-16-16-16h-352c-9.6 0-16 6.4-16 16v256c0 9.6 6.4 16 16 16h352c9.6 0 16-6.4 16-16v-256zM1008 800h-800c-25.6 0-48-22.4-48-48v-160c0-25.6 22.4-48 48-48h800c25.6 0 48 22.4 48 48v160c0 25.6-22.4 48-48 48zM1024 592c0-9.6-6.4-16-16-16h-800c-9.6 0-16 6.4-16 16v160c0 9.6 6.4 16 16 16h800c9.6 0 16-6.4 16-16v-160zM1024 416h-320c-9.6 0-16-6.4-16-16s6.4-16 16-16h320c9.6 0 16 6.4 16 16s-6.4 16-16 16zM1024 288h-320c-9.6 0-16-6.4-16-16s6.4-16 16-16h320c9.6 0 16 6.4 16 16s-6.4 16-16 16zM1024 160h-320c-9.6 0-16-6.4-16-16s6.4-16 16-16h320c9.6 0 16 6.4 16 16s-6.4 16-16 16z" />
<glyph unicode="&#xe917;" glyph-name="avatar-man" horiz-adv-x="1088" d="M835.2 208c-99.2 12.8-108.8 76.8-108.8 96 44.8 64 57.6 140.8 64 169.6 35.2 9.6 54.4 60.8 54.4 140.8 0 32-9.6 54.4-25.6 67.2-6.4 3.2-12.8 6.4-19.2 9.6v44.8c0 6.4 6.4 16 9.6 25.6l3.2 3.2c12.8 25.6 51.2 108.8-38.4 163.2-108.8 64-214.4 19.2-268.8-12.8-16-12.8-35.2-19.2-54.4-19.2h-48c-67.2 0-115.2-54.4-115.2-124.8v-80c-6.4 0-12.8-3.2-19.2-9.6-16-12.8-25.6-35.2-25.6-67.2 0-76.8 22.4-128 57.6-140.8 6.4-28.8 19.2-99.2 64-163.2 0-9.6-3.2-35.2-22.4-57.6-16-19.2-44.8-28.8-83.2-28.8 0 0-3.2 0-3.2 0-188.8-35.2-256-163.2-256-265.6 0-9.6 6.4-16 16-16s16 9.6 16 16c0 89.6 60.8 201.6 227.2 233.6 48 0 86.4 12.8 108.8 38.4 32 35.2 28.8 83.2 28.8 83.2 0 3.2 0 6.4-3.2 6.4-51.2 73.6-60.8 163.2-60.8 163.2 0 9.6-6.4 12.8-16 12.8-22.4 0-38.4 48-38.4 108.8 0 35.2 6.4 44.8 9.6 51.2 3.2 3.2 9.6 3.2 9.6 3.2 6.4 0 9.6 0 12.8 3.2 6.4 0 9.6 6.4 9.6 9.6v96c0 57.6 35.2 96 83.2 96h48c25.6 0 51.2 6.4 73.6 22.4 48 28.8 140.8 70.4 233.6 12.8 60.8-35.2 41.6-89.6 25.6-118.4l-3.2-3.2c-6.4-12.8-12.8-25.6-12.8-41.6v-64c0-6.4 3.2-9.6 6.4-12.8s9.6-3.2 12.8-3.2c0 0 6.4 0 9.6-3.2 6.4-6.4 12.8-22.4 12.8-41.6 0-64-16-108.8-35.2-108.8-9.6 0-16-6.4-16-16 0 0-9.6-96-60.8-169.6-3.2-3.2-3.2-6.4-3.2-9.6 0 0-6.4-118.4 137.6-134.4 166.4-25.6 227.2-137.6 227.2-224 0-9.6 6.4-16 16-16s16 6.4 16 16c-3.2 102.4-70.4 230.4-256 259.2z" />
<glyph unicode="&#xe918;" glyph-name="avatar-woman" horiz-adv-x="1088" d="M835.2 204.8c-41.6 6.4-73.6 19.2-89.6 41.6-12.8 19.2-16 38.4-16 51.2 35.2 9.6 150.4 44.8 230.4 124.8 3.2 3.2 6.4 9.6 3.2 16 0 6.4-3.2 9.6-9.6 12.8 0 0-124.8 54.4-137.6 249.6-9.6 124.8-105.6 259.2-268.8 259.2s-259.2-134.4-268.8-259.2c-9.6-195.2-131.2-249.6-137.6-249.6-3.2-3.2-6.4-6.4-9.6-9.6 0-3.2 0-9.6 3.2-12.8s64-80 230.4-134.4c-3.2-22.4-16-76.8-108.8-86.4-188.8-28.8-256-153.6-256-252.8 0-12.8 6.4-19.2 16-19.2s16 6.4 16 16c0 86.4 60.8 195.2 227.2 220.8 147.2 16 137.6 128 137.6 131.2 0 6.4-6.4 12.8-12.8 12.8-121.6 38.4-185.6 89.6-211.2 112 41.6 25.6 128 99.2 137.6 268.8 6.4 112 89.6 230.4 236.8 230.4 144 0 230.4-118.4 236.8-230.4 9.6-166.4 96-243.2 134.4-268.8-86.4-76.8-208-105.6-211.2-105.6-6.4 0-9.6-6.4-12.8-12.8 0-3.2-6.4-44.8 22.4-86.4 22.4-32 60.8-48 112-54.4 166.4-25.6 227.2-137.6 227.2-220.8 0-9.6 6.4-16 16-16s16 6.4 16 16c0 102.4-67.2 227.2-252.8 256z" />
<glyph unicode="&#xe919;" glyph-name="badge1" horiz-adv-x="736" d="M368 809.6c-115.2 0-208-92.8-208-208s92.8-208 208-208 208 92.8 208 208-92.8 208-208 208zM368 425.6c-96 0-176 80-176 176s80 176 176 176 176-80 176-176-80-176-176-176zM691.2 729.6c6.4 28.8 3.2 54.4-9.6 73.6s-35.2 32-64 35.2c-9.6 60.8-51.2 89.6-112 76.8-32 51.2-86.4 64-137.6 28.8-51.2 35.2-105.6 25.6-137.6-28.8-57.6 16-102.4-16-112-73.6-28.8-3.2-51.2-16-64-35.2-12.8-22.4-16-48-9.6-76.8-25.6-16-41.6-35.2-48-60.8s0-51.2 19.2-76.8c-19.2-25.6-25.6-51.2-19.2-76.8 6.4-22.4 22.4-44.8 48-60.8-6.4-28.8-3.2-54.4 9.6-73.6s35.2-32 64-35.2c9.6-60.8 51.2-89.6 112-76.8 32-51.2 86.4-64 137.6-28.8 19.2-12.8 41.6-22.4 60.8-22.4 32 0 57.6 16 76.8 48 60.8-12.8 102.4 16 112 76.8 28.8 3.2 51.2 16 64 35.2s16 44.8 9.6 73.6c25.6 16 41.6 35.2 48 60.8s0 51.2-19.2 76.8c19.2 25.6 25.6 51.2 19.2 76.8-6.4 28.8-22.4 48-48 64zM688 582.4c19.2-22.4 25.6-41.6 22.4-60.8-3.2-22.4-25.6-35.2-41.6-44.8-6.4-3.2-9.6-12.8-9.6-19.2 6.4-16 9.6-41.6-3.2-60.8s-35.2-22.4-54.4-25.6c-9.6 0-16-6.4-16-16-3.2-28.8-12.8-60.8-51.2-60.8-9.6 0-19.2 3.2-32 6.4-6.4 3.2-16 0-19.2-9.6-9.6-19.2-25.6-41.6-54.4-41.6-16 0-32 6.4-51.2 22.4-3.2 3.2-6.4 3.2-9.6 3.2s-6.4 0-9.6-3.2c-19.2-16-35.2-22.4-51.2-22.4-25.6 0-44.8 22.4-54.4 41.6-3.2 6.4-12.8 9.6-19.2 9.6-12.8-3.2-22.4-6.4-32-6.4-41.6 0-51.2 35.2-51.2 60.8 0 9.6-6.4 16-16 16-19.2 0-41.6 6.4-54.4 25.6s-6.4 41.6-3.2 60.8c3.2 6.4 0 16-9.6 19.2-16 9.6-38.4 22.4-41.6 44.8-3.2 19.2 3.2 38.4 22.4 60.8 6.4 6.4 6.4 12.8 0 19.2-16 22.4-22.4 41.6-19.2 60.8 3.2 22.4 25.6 35.2 41.6 44.8 6.4 3.2 9.6 12.8 9.6 19.2-6.4 16-12.8 41.6 0 60.8s35.2 22.4 54.4 25.6c9.6 0 16 6.4 16 16 3.2 28.8 12.8 60.8 51.2 60.8 9.6 0 19.2-3.2 32-6.4 6.4-3.2 16 0 19.2 9.6 9.6 19.2 25.6 41.6 54.4 41.6 16 0 32-6.4 51.2-22.4 6.4-6.4 12.8-6.4 19.2 0 19.2 16 35.2 22.4 51.2 22.4 25.6 0 44.8-22.4 54.4-41.6 3.2-6.4 12.8-9.6 19.2-9.6 12.8 3.2 22.4 6.4 32 6.4 41.6 0 51.2-35.2 51.2-60.8 0-9.6 6.4-16 16-16 19.2 0 41.6-6.4 54.4-25.6s6.4-41.6 3.2-60.8c-3.2-6.4 0-16 9.6-19.2 16-9.6 38.4-22.4 41.6-44.8 3.2-19.2-3.2-38.4-22.4-60.8-6.4-6.4-6.4-12.8 0-19.2zM160 224c-9.6 0-16-6.4-16-16v-220.8c0-19.2 9.6-35.2 28.8-41.6 19.2-9.6 41.6-6.4 57.6 6.4l137.6 108.8 140.8-108.8c9.6-6.4 22.4-12.8 32-12.8s16 3.2 25.6 6.4c16 9.6 28.8 25.6 28.8 44.8v224c0 9.6-6.4 16-16 16s-16-6.4-16-16v-224c0-9.6-6.4-12.8-9.6-16-6.4-3.2-16-3.2-22.4 3.2l-64 51.2v118.4c0 9.6-6.4 16-16 16s-16-6.4-16-16v-96l-54.4 41.6c-6.4 3.2-12.8 3.2-19.2 0l-54.4-41.6v92.8c0 9.6-6.4 16-16 16s-16-6.4-16-16v-118.4l-64-48c-9.6-9.6-19.2-9.6-25.6-6.4-3.2 0-9.6 6.4-9.6 16v220.8c0 9.6-6.4 16-16 16zM457.6 691.2l-112-147.2-70.4 70.4c-6.4 6.4-16 6.4-22.4 0s-6.4-16 0-22.4l83.2-80c3.2-3.2 6.4 0 12.8 0 0 0 0 0 0 0 3.2 0 9.6 0 12.8 3.2l121.6 160c6.4 6.4 3.2 16-3.2 22.4-6.4 3.2-16 3.2-22.4-6.4z" />
<glyph unicode="&#xe91a;" glyph-name="badge2" horiz-adv-x="704" d="M704 608c0 195.2-156.8 352-352 352s-352-156.8-352-352c0-115.2 54.4-217.6 140.8-281.6l-112-294.4c-3.2-6.4 0-12.8 3.2-16s9.6-6.4 16-6.4l121.6 22.4 83.2-89.6c0-3.2 6.4-6.4 9.6-6.4 0 0 3.2 0 3.2 0 6.4 0 9.6 6.4 12.8 9.6l86.4 224 86.4-224c3.2-6.4 6.4-9.6 12.8-9.6 0 0 3.2 0 3.2 0 3.2 0 9.6 3.2 12.8 6.4l83.2 89.6 124.8-19.2c6.4 0 12.8 0 16 6.4 3.2 3.2 3.2 9.6 3.2 16l-118.4 304c67.2 64 115.2 160 115.2 268.8zM32 608c0 176 144 320 320 320s320-144 320-320-144-320-320-320-320 144-320 320zM320 252.8l19.2-35.2-86.4-233.6-70.4 76.8c0 3.2-6.4 3.2-9.6 3.2l-105.6-16 99.2 262.4c48-28.8 96-48 156.8-51.2l-3.2-6.4c0 0 0 0 0 0zM659.2 48l-105.6 16c-6.4 0-9.6 0-12.8-6.4l-70.4-76.8-105.6 275.2c70.4 3.2 134.4 25.6 188.8 64l105.6-272zM528 608c0 96-80 176-176 176s-176-80-176-176 80-176 176-176 176 80 176 176zM208 608c0 80 64 144 144 144s144-64 144-144-64-144-144-144-144 64-144 144z" />
<glyph unicode="&#xe91b;" glyph-name="badge3" horiz-adv-x="736" d="M0-16c0-19.2 9.6-35.2 25.6-41.6 6.4-3.2 16-6.4 22.4-6.4 9.6 0 19.2 3.2 28.8 9.6l291.2 214.4 291.2-214.4c16-9.6 35.2-12.8 51.2-3.2s25.6 25.6 25.6 41.6v624c0 9.6-6.4 16-16 16s-16-6.4-16-16v-624c0-6.4-3.2-12.8-9.6-12.8-6.4-3.2-12.8-3.2-16 0l-300.8 220.8c-6.4 3.2-12.8 3.2-19.2 0l-300.8-220.8c-6.4-3.2-9.6-3.2-16 0-6.4 0-9.6 6.4-9.6 12.8v624c0 9.6-6.4 16-16 16s-16-6.4-16-16v-624zM48 672h640c25.6 0 48 22.4 48 48v192c0 25.6-22.4 48-48 48h-640c-25.6 0-48-22.4-48-48v-192c0-25.6 22.4-48 48-48zM32 912c0 9.6 6.4 16 16 16h640c9.6 0 16-6.4 16-16v-192c0-9.6-6.4-16-16-16h-640c-9.6 0-16 6.4-16 16v192z" />
<glyph unicode="&#xe91c;" glyph-name="bamboo" horiz-adv-x="864" d="M537.6 502.4c-41.6 192 0 435.2 0 438.4s0 9.6-3.2 12.8c-3.2 3.2-6.4 6.4-9.6 6.4h-192c-6.4 0-9.6-3.2-12.8-6.4s-6.4-9.6-3.2-12.8c0-3.2 38.4-192 0-441.6 0-3.2 0-9.6 3.2-12.8s6.4-6.4 12.8-6.4h192c0 0 0 0 0 0 9.6 0 16 6.4 16 16 0 3.2-3.2 6.4-3.2 6.4zM502.4 512h-153.6c28.8 201.6 9.6 361.6 0 416h153.6c-6.4-60.8-32-249.6 0-416zM320-57.6c3.2-3.2 6.4-6.4 12.8-6.4h192c0 0 0 0 0 0 9.6 0 16 6.4 16 16 0 3.2 0 6.4-3.2 6.4-41.6 192 0 435.2 0 438.4s0 9.6-3.2 12.8c-3.2 3.2-6.4 6.4-12.8 6.4h-192c-6.4 0-9.6-3.2-12.8-6.4s-3.2-9.6-3.2-12.8c0-3.2 38.4-192 0-441.6 0-6.4 3.2-9.6 6.4-12.8zM352 384h153.6c-9.6-60.8-32-249.6 0-416h-153.6c28.8 201.6 6.4 361.6 0 416zM284.8 483.2c3.2 3.2 6.4 6.4 6.4 12.8 0 0-3.2 156.8-153.6 204.8-3.2 0-9.6 0-12.8 0-3.2-3.2-6.4-6.4-6.4-12.8 0 0-19.2-134.4 150.4-208 3.2 0 3.2 0 6.4 0s6.4 0 9.6 3.2zM147.2 662.4c76.8-35.2 102.4-102.4 108.8-140.8-89.6 48-105.6 108.8-108.8 140.8zM115.2 518.4c-35.2 0-67.2-9.6-99.2-25.6-3.2-3.2-6.4-6.4-9.6-9.6 0-3.2 0-9.6 3.2-12.8s48-64 144-64c35.2 0 73.6 9.6 112 22.4 6.4 3.2 9.6 6.4 9.6 12.8s0 9.6-3.2 16c-6.4 3.2-67.2 60.8-156.8 60.8zM153.6 438.4c-51.2 0-86.4 19.2-102.4 35.2 22.4 9.6 44.8 12.8 64 12.8 48 0 86.4-19.2 108.8-35.2-25.6-6.4-48-12.8-70.4-12.8zM569.6 870.4c-3.2-3.2-6.4-6.4-6.4-12.8 0 0 3.2-156.8 153.6-204.8 3.2 0 3.2 0 6.4 0s6.4 0 9.6 3.2c0 0 3.2 3.2 3.2 9.6 0 0 19.2 134.4-150.4 208-6.4 0-12.8 0-16-3.2zM704 691.2c-76.8 35.2-102.4 102.4-108.8 140.8 89.6-48 105.6-108.8 108.8-140.8zM739.2 835.2c35.2 0 73.6 9.6 108.8 25.6 3.2 3.2 6.4 6.4 9.6 9.6 0 3.2 0 9.6-3.2 12.8s-51.2 64-153.6 64c-38.4 0-76.8-6.4-118.4-22.4-6.4-3.2-9.6-6.4-9.6-12.8s0-9.6 6.4-16c-3.2-3.2 64-60.8 160-60.8 0 0 0 0 0 0zM700.8 915.2c57.6 0 92.8-19.2 112-35.2-22.4-9.6-48-12.8-73.6-12.8v0c-51.2 0-96 19.2-121.6 35.2 28.8 6.4 57.6 12.8 83.2 12.8z" />
<glyph unicode="&#xe91d;" glyph-name="basketball" d="M512 960c-281.6 0-512-230.4-512-512s230.4-512 512-512 512 230.4 512 512-230.4 512-512 512zM992 448c0-22.4-3.2-48-6.4-70.4-166.4 6.4-316.8 86.4-416 204.8 140.8 115.2 262.4 179.2 291.2 192 83.2-83.2 131.2-198.4 131.2-326.4zM838.4 800c-41.6-22.4-156.8-83.2-284.8-192-64 89.6-105.6 195.2-108.8 313.6 19.2 3.2 44.8 6.4 67.2 6.4 124.8 0 240-48 326.4-128zM409.6 918.4c6.4-121.6 48-236.8 115.2-326.4-57.6-51.2-118.4-108.8-179.2-176-89.6 64-195.2 102.4-310.4 108.8 35.2 192 182.4 348.8 374.4 393.6zM35.2 489.6c108.8-3.2 211.2-41.6 294.4-99.2-64-76.8-121.6-166.4-169.6-262.4-80 83.2-128 195.2-128 320 0 12.8 0 28.8 3.2 41.6zM182.4 102.4c48 102.4 108.8 192 172.8 268.8 118.4-96 192-240 198.4-400-12.8-3.2-28.8-3.2-41.6-3.2-128 0-243.2 51.2-329.6 134.4zM585.6-25.6c-6.4 169.6-86.4 320-211.2 419.2 54.4 64 115.2 121.6 172.8 169.6 105.6-128 259.2-208 435.2-217.6-41.6-192-201.6-342.4-396.8-371.2z" />
<glyph unicode="&#xe91e;" glyph-name="battery" horiz-adv-x="1120" d="M352 160c9.6 0 16 6.4 16 16s-6.4 16-16 16h-304c-9.6 0-16 6.4-16 16v480c0 9.6 6.4 16 16 16h304c9.6 0 16 6.4 16 16s-6.4 16-16 16h-304c-25.6 0-48-22.4-48-48v-480c0-25.6 22.4-48 48-48h304zM992 576v112c0 25.6-22.4 48-48 48h-304c-9.6 0-16-6.4-16-16s6.4-16 16-16h304c9.6 0 16-6.4 16-16v-480c0-9.6-6.4-16-16-16h-336c-9.6 0-16-6.4-16-16s6.4-16 16-16h336c25.6 0 48 22.4 48 48v80h80c25.6 0 48 22.4 48 48v192c0 25.6-22.4 48-48 48h-80zM1088 528v-192c0-9.6-6.4-16-16-16h-80v224h80c9.6 0 16-6.4 16-16zM412.8-54.4c3.2 0 3.2 0 6.4 0 6.4 0 9.6 3.2 12.8 9.6l342.4 601.6c3.2 6.4 3.2 9.6 0 16s-9.6 6.4-12.8 6.4h-227.2l99.2 371.2c3.2 6.4-3.2 16-9.6 19.2s-16 0-19.2-6.4l-371.2-553.6c-3.2-6.4-3.2-12.8 0-16 3.2-6.4 9.6-9.6 12.8-9.6h252.8l-99.2-422.4c0-6.4 6.4-12.8 12.8-16zM537.6 396.8c0 3.2 0 9.6-3.2 12.8s-6.4 6.4-12.8 6.4h-243.2l297.6 448-80-297.6c0-3.2 0-9.6 3.2-12.8s9.6-9.6 12.8-9.6h220.8l-272-480 76.8 332.8z" />
<glyph unicode="&#xe91f;" glyph-name="beach-seat" horiz-adv-x="1248" d="M1248-48c0 9.6-6.4 16-16 16h-345.6l86.4 233.6c0 0 0 0 0 0 32 9.6 60.8 25.6 83.2 48l124.8 115.2c6.4 6.4 6.4 16 0 22.4s-16 6.4-22.4 0l-124.8-115.2c-35.2-35.2-83.2-51.2-134.4-51.2h-515.2c0 0 0 0 0 0s0 0-3.2 0c-51.2 0-99.2-19.2-137.6-48l-137.6-108.8c-9.6-3.2-9.6-12.8-3.2-19.2 3.2-3.2 6.4-6.4 12.8-6.4 3.2 0 6.4 0 9.6 3.2l137.6 105.6c28.8 22.4 60.8 35.2 96 38.4l-83.2-217.6h-259.2c-9.6 0-16-6.4-16-16s6.4-16 16-16h1216c9.6 0 16 6.4 16 16zM934.4 195.2l-83.2-227.2h-252.8l83.2 224h220.8c9.6 0 22.4 0 32 3.2zM393.6 192h252.8l-83.2-224h-252.8l83.2 224zM832 960c-118.4 0-246.4-44.8-332.8-118.4-9.6-9.6-16-25.6-12.8-41.6s12.8-32 28.8-35.2l320-121.6-150.4-348.8c-3.2-9.6 0-16 9.6-22.4 3.2 0 3.2 0 6.4 0 6.4 0 12.8 3.2 16 9.6l150.4 352 320-121.6c6.4-3.2 12.8-3.2 16-3.2 12.8 0 25.6 6.4 35.2 16s12.8 22.4 12.8 35.2c-19.2 233.6-195.2 400-419.2 400zM1216 544c-3.2-3.2-6.4-6.4-12.8-6.4-3.2 0-3.2 0-6.4 0l-672 252.8c-6.4 3.2-9.6 6.4-9.6 12.8 0 3.2 0 9.6 3.2 12.8 83.2 70.4 201.6 112 313.6 112 208 0 368-153.6 387.2-374.4 3.2-3.2 0-6.4-3.2-9.6z" />
<glyph unicode="&#xe920;" glyph-name="bell" d="M912 256h-16v192c0 192-140.8 348.8-323.2 377.6 12.8 12.8 19.2 32 19.2 54.4 0 44.8-35.2 80-80 80s-80-35.2-80-80c0-19.2 6.4-38.4 19.2-54.4-182.4-28.8-323.2-185.6-323.2-377.6v-192h-16c-60.8 0-112-51.2-112-112s51.2-112 112-112h288c6.4-54.4 54.4-96 112-96s102.4 41.6 112 96h288c60.8 0 112 51.2 112 112s-51.2 112-112 112zM512 928c25.6 0 48-22.4 48-48s-22.4-48-48-48-48 22.4-48 48 22.4 48 48 48zM912 64h-304c-9.6 0-16-6.4-16-16 0-44.8-35.2-80-80-80s-80 35.2-80 80c0 9.6-6.4 16-16 16h-304c-44.8 0-80 35.2-80 80s35.2 80 80 80h80c9.6 0 16 6.4 16 16s-6.4 16-16 16h-32v192c0 195.2 156.8 352 352 352s352-156.8 352-352v-192h-32c-9.6 0-16-6.4-16-16s6.4-16 16-16h80c44.8 0 80-35.2 80-80s-35.2-80-80-80zM524.8 723.2c-153.6 0-281.6-124.8-281.6-281.6 0-9.6 6.4-16 16-16s16 6.4 16 16c0 137.6 112 249.6 249.6 249.6 9.6 0 16 6.4 16 16s-6.4 16-16 16z" />
<glyph unicode="&#xe921;" glyph-name="bicycle" horiz-adv-x="1696" d="M1360 601.6c-38.4 0-73.6-6.4-108.8-19.2l-25.6 64c131.2 48 272 28.8 387.2-51.2 3.2-3.2 6.4-3.2 9.6-3.2 6.4 0 9.6 3.2 12.8 6.4 6.4 6.4 3.2 16-3.2 22.4-121.6 86.4-275.2 105.6-416 54.4l-108.8 252.8h140.8c9.6 0 16 6.4 16 16s-6.4 16-16 16h-163.2c-6.4 0-9.6-3.2-12.8-6.4s-3.2-9.6 0-16l96-233.6h-496v128h64c9.6 0 16 6.4 16 16s-6.4 16-16 16h-160c-9.6 0-16-6.4-16-16s6.4-16 16-16h64v-128c-3.2 0-9.6-3.2-9.6-6.4l-51.2-67.2c-179.2 118.4-416 96-569.6-57.6-6.4-6.4-6.4-16 0-22.4 3.2-3.2 6.4-3.2 12.8-3.2 3.2 0 9.6 0 12.8 3.2 140.8 140.8 361.6 163.2 528 54.4l-41.6-54.4c-51.2 35.2-115.2 54.4-182.4 54.4-188.8-3.2-339.2-153.6-339.2-339.2s150.4-336 336-336c182.4 0 329.6 144 336 326.4h192c0 0 0 0 0 0 3.2 0 3.2 0 6.4 3.2 0 0 0 0 0 0 3.2 0 3.2 3.2 6.4 3.2 0 0 0 0 0 0l307.2 406.4 38.4-96c-115.2-54.4-198.4-169.6-198.4-307.2 0-185.6 150.4-336 336-336s336 153.6 336 336-150.4 336-336 336zM643.2 662.4l195.2-374.4h-166.4c-6.4 99.2-54.4 185.6-128 243.2l99.2 131.2zM640 288h-278.4l163.2 217.6c64-51.2 108.8-128 115.2-217.6zM336-38.4c-166.4 0-304 137.6-304 304s137.6 304 304 304c60.8 0 115.2-16 163.2-48l-182.4-243.2c-3.2-6.4-3.2-12.8 0-16 3.2-6.4 9.6-9.6 12.8-9.6h310.4c-6.4-160-140.8-291.2-304-291.2zM867.2 300.8l-192 371.2h470.4l-278.4-371.2zM1360-38.4c-166.4 0-304 137.6-304 304 0 121.6 73.6 227.2 179.2 275.2l118.4-284.8c3.2-6.4 9.6-9.6 16-9.6 3.2 0 3.2 0 6.4 0 9.6 3.2 12.8 12.8 9.6 22.4l-118.4 284.8c28.8 9.6 64 16 96 16 166.4 0 304-137.6 304-304s-140.8-304-307.2-304z" />
<glyph unicode="&#xe922;" glyph-name="blog-content" d="M976 960h-928c-25.6 0-48-22.4-48-48v-256c0-25.6 22.4-48 48-48h928c25.6 0 48 22.4 48 48v256c0 25.6-22.4 48-48 48zM992 656c0-9.6-6.4-16-16-16h-928c-9.6 0-16 6.4-16 16v256c0 9.6 6.4 16 16 16h928c9.6 0 16-6.4 16-16v-256zM1008 560c-9.6 0-16-6.4-16-16v-560c0-9.6-6.4-16-16-16h-928c-9.6 0-16 6.4-16 16v560c0 9.6-6.4 16-16 16s-16-6.4-16-16v-560c0-25.6 22.4-48 48-48h928c25.6 0 48 22.4 48 48v560c0 9.6-6.4 16-16 16zM432 96c25.6 0 48 22.4 48 48v256c0 25.6-22.4 48-48 48h-256c-25.6 0-48-22.4-48-48v-256c0-25.6 22.4-48 48-48h256zM160 144v256c0 9.6 6.4 16 16 16h256c9.6 0 16-6.4 16-16v-256c0-9.6-6.4-16-16-16h-256c-9.6 0-16 6.4-16 16zM576 384h288c9.6 0 16 6.4 16 16s-6.4 16-16 16h-288c-9.6 0-16-6.4-16-16s6.4-16 16-16zM576 256h288c9.6 0 16 6.4 16 16s-6.4 16-16 16h-288c-9.6 0-16-6.4-16-16s6.4-16 16-16zM576 128h288c9.6 0 16 6.4 16 16s-6.4 16-16 16h-288c-9.6 0-16-6.4-16-16s6.4-16 16-16z" />
<glyph unicode="&#xe923;" glyph-name="bluetooth" horiz-adv-x="608" d="M304 451.2v-9.6l-297.6-288c-6.4-6.4-6.4-19.2 0-25.6s16-6.4 22.4 0l275.2 265.6v-409.6c0-19.2 12.8-38.4 28.8-44.8 6.4-3.2 12.8-3.2 19.2-3.2 12.8 0 25.6 6.4 35.2 16l198.4 208c19.2 19.2 16 48 0 67.2l-227.2 217.6 227.2 220.8c19.2 19.2 19.2 48 3.2 67.2l-198.4 211.2c-12.8 16-35.2 19.2-51.2 12.8-19.2-6.4-32-25.6-32-44.8v-416l-278.4 262.4c-6.4 6.4-16 6.4-22.4 0s-6.4-16 0-22.4l297.6-284.8zM336 912c0 9.6 6.4 12.8 9.6 16 0 0 3.2 0 6.4 0s6.4 0 12.8-6.4l198.4-211.2c6.4-6.4 6.4-16 0-22.4l-224-217.6v441.6zM336 419.2l224-217.6c6.4-6.4 6.4-16 0-22.4l-198.4-208c-6.4-6.4-16-3.2-16-3.2-3.2 0-9.6 3.2-9.6 16v435.2z" />
<glyph unicode="&#xe924;" glyph-name="board" d="M1024 336v576c0 25.6-22.4 48-48 48h-928c-25.6 0-48-22.4-48-48v-576c0-25.6 22.4-48 48-48h128l-160-329.6c-3.2-6.4 0-16 6.4-22.4 3.2 0 3.2 0 6.4 0 6.4 0 12.8 3.2 16 9.6l160 332.8c3.2 3.2 3.2 6.4 0 9.6h640c0-3.2 0-6.4 0-9.6l128-332.8c3.2-6.4 9.6-9.6 16-9.6 3.2 0 3.2 0 6.4 0 9.6 3.2 12.8 12.8 9.6 19.2l-128 329.6h96c28.8 3.2 51.2 25.6 51.2 51.2zM48 320c-9.6 0-16 6.4-16 16v576c0 9.6 6.4 16 16 16h928c9.6 0 16-6.4 16-16v-576c0-9.6-6.4-16-16-16h-928z" />
<glyph unicode="&#xe925;" glyph-name="body" horiz-adv-x="1056" d="M22.4 348.8c9.6 3.2 12.8 12.8 12.8 19.2 0 0-22.4 115.2 51.2 204.8 3.2 3.2 3.2 9.6 3.2 16 0 0-41.6 112 9.6 192 35.2 54.4 102.4 83.2 201.6 92.8 3.2 0 6.4 3.2 9.6 3.2 0 0 51.2 44.8 99.2 48 9.6 0 16 9.6 16 16s-6.4 19.2-16 19.2c-51.2-3.2-102.4-41.6-115.2-54.4-105.6-6.4-179.2-41.6-220.8-105.6-51.2-83.2-25.6-182.4-16-214.4-76.8-99.2-54.4-217.6-54.4-224 3.2-6.4 9.6-12.8 19.2-12.8-3.2 0 0 0 0 0zM265.6-57.6c3.2-3.2 6.4-6.4 12.8-6.4 3.2 0 6.4 0 9.6 3.2 6.4 6.4 6.4 16 0 22.4-22.4 25.6-19.2 105.6-9.6 153.6 0 3.2 3.2 83.2-25.6 156.8-19.2 51.2-22.4 118.4-22.4 150.4 0 6.4 0 9.6 0 16 0 9.6-6.4 16-16 16s-16-6.4-16-16c0 0 0-6.4 0-16-3.2-96-60.8-172.8-60.8-172.8-6.4-6.4-3.2-16 3.2-22.4s16-3.2 22.4 3.2c3.2 3.2 25.6 35.2 44.8 86.4 3.2-19.2 9.6-38.4 16-54.4 25.6-67.2 25.6-140.8 25.6-140.8-6.4-16-25.6-134.4 16-179.2zM982.4 800c-38.4 60.8-112 96-220.8 105.6-16 12.8-64 51.2-115.2 54.4-9.6 0-16-6.4-16-16s6.4-16 16-16c48-3.2 99.2-48 99.2-48 3.2-3.2 6.4-3.2 9.6-3.2 99.2-6.4 166.4-38.4 201.6-92.8 51.2-83.2 12.8-192 9.6-195.2-3.2-6.4 0-12.8 3.2-16 73.6-89.6 51.2-204.8 51.2-204.8-3.2-9.6 3.2-16 12.8-19.2 0 0 3.2 0 3.2 0 6.4 0 12.8 6.4 16 12.8 0 6.4 22.4 124.8-54.4 224 9.6 32 35.2 134.4-16 214.4zM848 316.8c19.2-51.2 41.6-83.2 44.8-86.4 6.4-6.4 16-9.6 22.4-3.2s9.6 16 3.2 22.4c0 0-57.6 76.8-60.8 172.8 0 9.6 0 16 0 16 0 9.6-6.4 16-16 16s-16-6.4-16-16c0-6.4 0-9.6 0-16 0-28.8-3.2-99.2-22.4-150.4-28.8-73.6-25.6-153.6-25.6-160 9.6-44.8 12.8-124.8-9.6-150.4-6.4-6.4-6.4-16 0-22.4 3.2-3.2 6.4-3.2 9.6-3.2s9.6 3.2 12.8 6.4c41.6 44.8 22.4 163.2 19.2 176 0 0-3.2 76.8 25.6 144 6.4 16 9.6 35.2 12.8 54.4zM851.2 627.2c-9.6 0-16-6.4-16-16 0-86.4-73.6-160-163.2-160-51.2 0-99.2 22.4-131.2 64-6.4 6.4-19.2 6.4-25.6 0-32-41.6-80-64-131.2-64-89.6 0-163.2 70.4-163.2 160 0 9.6-6.4 16-16 16s-16-6.4-16-16c0-105.6 86.4-192 195.2-192 54.4 0 105.6 22.4 144 60.8 35.2-38.4 86.4-60.8 144-60.8 105.6 0 195.2 86.4 195.2 192 0 9.6-6.4 16-16 16zM668.8 787.2c-51.2-12.8-112-54.4-134.4-73.6-60.8 54.4-137.6 73.6-144 73.6-9.6 3.2-16-3.2-19.2-12.8s3.2-16 12.8-19.2c0 0 83.2-19.2 137.6-76.8 3.2-3.2 6.4-6.4 12.8-6.4 3.2 0 6.4 0 9.6 3.2 0 0 76.8 60.8 134.4 76.8 9.6 3.2 12.8 9.6 12.8 19.2-3.2 12.8-12.8 19.2-22.4 16z" />
<glyph unicode="&#xe926;" glyph-name="bomb" horiz-adv-x="832" d="M483.2 928c54.4 0 96-38.4 96-89.6 0-64 41.6-105.6 102.4-105.6s102.4 41.6 102.4 102.4c0 9.6 0 35.2 16 35.2 9.6 0 16 6.4 16 16s-6.4 16-16 16c-9.6 0-48-3.2-48-67.2 0-44.8-25.6-70.4-70.4-70.4s-70.4 28.8-70.4 73.6c0 67.2-57.6 121.6-128 121.6-73.6 0-131.2-54.4-131.2-121.6v-70.4c0 0 0-3.2 0-3.2-51.2-12.8-89.6-54.4-96-108.8-156.8-60.8-288-243.2-230.4-444.8 44.8-163.2 192-275.2 358.4-275.2 0 0 0 0 0 0 6.4 0 9.6 0 16 0 201.6 9.6 358.4 169.6 358.4 371.2 0 166.4-121.6 300.8-246.4 348.8-6.4 64-57.6 112-121.6 112h-6.4v70.4c0 57.6 51.2 89.6 99.2 89.6zM387.2 736c51.2 0 92.8-41.6 92.8-92.8 0-6.4 3.2-12.8 9.6-16 115.2-41.6 233.6-166.4 233.6-323.2 0-182.4-144-329.6-326.4-339.2-3.2 0-9.6 0-12.8 0 0 0 0 0 0 0-150.4 0-288 102.4-329.6 252.8-51.2 188.8 76.8 358.4 224 412.8 6.4 0 9.6 6.4 9.6 12.8 0 51.2 41.6 92.8 92.8 92.8h6.4zM272 547.2c-131.2-64-188.8-220.8-124.8-352 3.2-6.4 9.6-9.6 16-9.6 3.2 0 6.4 0 6.4 3.2 9.6 3.2 12.8 12.8 9.6 22.4-54.4 115.2-6.4 252.8 108.8 307.2 9.6 3.2 12.8 12.8 9.6 22.4-6.4 6.4-16 9.6-25.6 6.4z" />
<glyph unicode="&#xe927;" glyph-name="bond-hand" horiz-adv-x="1088" d="M601.6 656c3.2 0 9.6 0 12.8 3.2l54.4 54.4c3.2 6.4 3.2 16 0 22.4s-16 6.4-22.4 0l-54.4-54.4c-6.4-6.4-6.4-16 0-22.4 0-3.2 6.4-3.2 9.6-3.2zM326.4 486.4c3.2 0 9.6 0 12.8 3.2 6.4 6.4 6.4 16 0 22.4l-54.4 54.4c-6.4 6.4-16 6.4-22.4 0s-6.4-16 0-22.4l54.4-54.4c0-3.2 6.4-3.2 9.6-3.2zM473.6 236.8l-54.4-54.4c-6.4-6.4-6.4-16 0-22.4 3.2-3.2 6.4-3.2 12.8-3.2s9.6 0 12.8 3.2l54.4 54.4c6.4 6.4 6.4 16 0 22.4s-19.2 6.4-25.6 0zM1036.8 460.8c-9.6 9.6-22.4 12.8-35.2 16 0 12.8-6.4 25.6-16 35.2s-22.4 12.8-35.2 16c0 12.8-6.4 25.6-16 35.2s-22.4 12.8-35.2 16c0 12.8-6.4 25.6-16 35.2s-19.2 12.8-32 12.8l-144 144c12.8 22.4 9.6 54.4-9.6 73.6l-105.6 105.6c-19.2 19.2-51.2 19.2-70.4 0-3.2-16-9.6-25.6-9.6-38.4-12.8 0-25.6-6.4-35.2-16s-12.8-22.4-16-35.2c-12.8 0-25.6-6.4-35.2-16-3.2-6.4-9.6-19.2-9.6-28.8-12.8 0-25.6-6.4-35.2-16-12.8-12.8-16-32-12.8-48l-137.6-137.6c-22.4 12.8-54.4 9.6-73.6-9.6l-105.6-105.6c-19.2-19.2-19.2-51.2 0-70.4 9.6-9.6 22.4-12.8 35.2-16 0-12.8 6.4-25.6 16-35.2s22.4-12.8 35.2-16c0-12.8 6.4-25.6 16-35.2s22.4-12.8 35.2-16c0-12.8 6.4-25.6 16-35.2s22.4-16 35.2-16c0 0 3.2 0 3.2 0l137.6-137.6c-6.4-9.6-9.6-19.2-9.6-32 0-16 6.4-32 19.2-44.8l105.6-105.6c9.6-9.6 22.4-16 35.2-16s25.6 6.4 35.2 16c9.6 9.6 12.8 22.4 16 35.2 12.8 0 25.6 6.4 35.2 16s12.8 22.4 16 35.2c12.8 0 25.6 6.4 35.2 16s12.8 22.4 16 35.2c12.8 0 25.6 6.4 35.2 16s16 25.6 12.8 38.4l137.6 137.6c22.4-12.8 54.4-9.6 73.6 9.6l105.6 105.6c6.4 25.6 6.4 57.6-12.8 76.8zM406.4 777.6c6.4 6.4 19.2 6.4 25.6 0l38.4-41.6c3.2-3.2 6.4-3.2 12.8-3.2s9.6 0 12.8 3.2c6.4 6.4 6.4 16 0 22.4l-41.6 41.6c-6.4 6.4-6.4 19.2 0 25.6s19.2 6.4 25.6 0l41.6-41.6c3.2-3.2 6.4-3.2 12.8-3.2s9.6 0 12.8 3.2c6.4 6.4 6.4 16 0 22.4l-41.6 41.6c-6.4 6.4-6.4 19.2 0 25.6s19.2 6.4 25.6 0l41.6-41.6c6.4-6.4 16-6.4 22.4 0s6.4 16 0 22.4l-44.8 41.6c-6.4 6.4-6.4 19.2 0 25.6s19.2 6.4 25.6 0l105.6-105.6c12.8-12.8 12.8-28.8 0-41.6-6.4-6.4-6.4-16 0-22.4l144-144c-3.2 0-3.2-3.2-6.4-3.2l-102.4-102.4-140.8 144c-6.4 6.4-16 6.4-22.4 0-9.6-9.6-32-9.6-41.6 0l-105.6 105.6c-9.6 6.4-9.6 19.2 0 25.6zM704 425.6l-137.6-137.6c-16 3.2-32 3.2-44.8-6.4l-131.2 134.4c3.2 16 3.2 32-6.4 44.8l144 144c12.8 0 25.6 0 35.2 6.4l137.6-137.6c-6.4-12.8-6.4-32 3.2-48zM220.8 329.6l41.6 41.6c6.4 6.4 6.4 16 0 22.4s-16 6.4-22.4 0l-41.6-41.6c-6.4-6.4-19.2-6.4-25.6 0s-6.4 19.2 0 25.6l41.6 41.6c6.4 6.4 6.4 16 0 22.4s-16 6.4-22.4 0l-41.6-41.6c-6.4-6.4-19.2-6.4-25.6 0s-6.4 19.2 0 25.6l41.6 41.6c6.4 6.4 6.4 16 0 22.4s-16 6.4-22.4 0l-44.8-41.6c-6.4-6.4-19.2-6.4-25.6 0s-6.4 19.2 0 25.6l105.6 105.6c12.8 9.6 32 9.6 41.6 0 6.4-6.4 16-6.4 22.4 0l144 144 99.2-99.2c3.2-3.2 3.2-3.2 6.4-3.2l-140.8-147.2c-6.4-6.4-6.4-16 0-22.4 12.8-12.8 12.8-28.8 0-41.6l-105.6-105.6c-6.4-6.4-19.2-6.4-25.6 0-9.6 6.4-9.6 19.2 0 25.6zM681.6 118.4c-6.4-6.4-19.2-6.4-25.6 0l-41.6 41.6c-6.4 6.4-16 6.4-22.4 0s-6.4-16 0-22.4l41.6-41.6c6.4-6.4 6.4-19.2 0-25.6s-19.2-6.4-25.6 0l-41.6 41.6c-6.4 6.4-16 6.4-22.4 0s-6.4-16 0-22.4l41.6-41.6c6.4-6.4 6.4-19.2 0-25.6s-19.2-6.4-25.6 0l-41.6 41.6c-6.4 6.4-16 6.4-22.4 0s-6.4-16 0-22.4l41.6-41.6c6.4-6.4 6.4-19.2 0-25.6s-19.2-6.4-25.6 0l-105.6 105.6c-6.4 6.4-9.6 12.8-9.6 22.4s3.2 16 9.6 22.4c3.2 3.2 3.2 6.4 3.2 12.8s-3.2 9.6-3.2 12.8l-137.6 137.6c0 0 0 0 0 0l105.6 105.6 137.6-137.6c6.4-6.4 16-6.4 22.4 0 12.8 9.6 32 9.6 41.6 0l105.6-105.6c6.4-12.8 6.4-25.6 0-32zM1014.4 412.8l-105.6-105.6c-9.6-9.6-32-9.6-41.6 0-6.4 6.4-16 6.4-22.4 0l-140.8-140.8c0 0 0 0 0 0l-105.6 105.6 137.6 137.6c3.2 3.2 3.2 6.4 3.2 12.8s-3.2 9.6-3.2 12.8c-12.8 12.8-12.8 28.8 0 41.6l105.6 105.6c6.4 6.4 19.2 6.4 25.6 0s6.4-19.2 0-25.6l-41.6-41.6c-6.4-6.4-6.4-16 0-22.4s16-6.4 22.4 0l41.6 41.6c6.4 6.4 19.2 6.4 25.6 0s6.4-19.2 0-25.6l-41.6-41.6c-6.4-6.4-6.4-16 0-22.4 3.2-3.2 6.4-3.2 12.8-3.2s9.6 0 12.8 3.2l41.6 41.6c6.4 6.4 19.2 6.4 25.6 0s6.4-19.2 0-25.6l-41.6-41.6c-6.4-6.4-6.4-16 0-22.4 3.2-3.2 6.4-3.2 12.8-3.2s9.6 0 12.8 3.2l41.6 41.6c6.4 6.4 19.2 6.4 25.6 0 3.2-6.4 3.2-19.2-3.2-25.6zM774.4 396.8c-6.4 6.4-16 6.4-22.4 0s-6.4-16 0-22.4l54.4-54.4c3.2-3.2 6.4-3.2 12.8-3.2s9.6 0 12.8 3.2c6.4 6.4 6.4 16 0 22.4l-57.6 54.4z" />
<glyph unicode="&#xe928;" glyph-name="bond" d="M204.8 864c0-54.4 41.6-96 96-96s96 41.6 96 96-41.6 96-96 96-96-41.6-96-96zM364.8 864c0-35.2-28.8-64-64-64s-64 28.8-64 64 28.8 64 64 64 64-28.8 64-64zM28.8 528c0-44.8 35.2-80 80-80 32 0 60.8 19.2 73.6 48l140.8-25.6c-3.2-12.8-3.2-22.4-3.2-35.2 0-89.6 70.4-160 160-160 67.2 0 124.8 41.6 147.2 99.2l188.8-64c3.2 0 3.2 0 6.4 0 6.4 0 12.8 3.2 16 9.6 3.2 9.6-3.2 16-9.6 19.2l-188.8 64c3.2 9.6 3.2 19.2 3.2 28.8 0 89.6-70.4 160-160 160-16 0-28.8-3.2-44.8-6.4l-60.8 153.6c-3.2 9.6-12.8 12.8-19.2 9.6-9.6-3.2-12.8-12.8-9.6-19.2l60.8-153.6c-32-16-57.6-41.6-70.4-73.6l-144 25.6c0 0 0 0 0 3.2 0 44.8-35.2 80-80 80s-86.4-38.4-86.4-83.2zM476.8 563.2c70.4 0 128-57.6 128-128s-57.6-128-128-128-128 57.6-128 128 57.6 128 128 128zM108.8 576c25.6 0 48-22.4 48-48s-19.2-48-48-48-48 22.4-48 48 22.4 48 48 48zM160-64c89.6 0 160 70.4 160 160 0 41.6-16 76.8-41.6 105.6l80 83.2c6.4 6.4 6.4 16 0 22.4s-16 6.4-22.4 0l-80-83.2c-25.6 19.2-60.8 32-96 32-89.6 0-160-70.4-160-160s70.4-160 160-160zM160 224c70.4 0 128-57.6 128-128s-57.6-128-128-128-128 57.6-128 128 57.6 128 128 128zM944 195.2c44.8 0 80 35.2 80 80s-35.2 80-80 80-80-35.2-80-80 35.2-80 80-80zM944 323.2c25.6 0 48-22.4 48-48s-22.4-48-48-48-48 19.2-48 48 22.4 48 48 48zM636.8 553.6c3.2 0 9.6 0 12.8 3.2l57.6 57.6c22.4-16 48-28.8 80-28.8 70.4 0 128 57.6 128 128s-57.6 128-128 128-128-57.6-128-128c0-28.8 9.6-54.4 25.6-76.8l-57.6-57.6c-6.4-6.4-6.4-16 0-22.4 0 0 6.4-3.2 9.6-3.2zM784 812.8c54.4 0 96-41.6 96-96s-41.6-96-96-96-96 41.6-96 96 44.8 96 96 96z" />
<glyph unicode="&#xe929;" glyph-name="bonsai" d="M1008 758.4c0 38.4-32 70.4-70.4 70.4s-73.6-32-73.6-70.4c0-6.4 0-12.8 3.2-19.2-44.8 3.2-99.2-16-140.8-60.8-6.4-6.4-12.8-12.8-19.2-22.4-22.4 48-51.2 86.4-86.4 112 12.8 19.2 19.2 41.6 19.2 64 0 70.4-57.6 128-128 128s-128-57.6-128-128c0-22.4 6.4-44.8 19.2-64-35.2-28.8-67.2-70.4-86.4-118.4-28.8 25.6-60.8 41.6-89.6 44.8-38.4 6.4-70.4-3.2-96-25.6-22.4-22.4-32-57.6-25.6-96s28.8-73.6 57.6-105.6c35.2-35.2 76.8-57.6 118.4-64 9.6-25.6 16-51.2 25.6-83.2h-233.6c-9.6 0-16-6.4-16-12.8 0-211.2 176-371.2 403.2-371.2h89.6c227.2 0 403.2 160 403.2 371.2 0 9.6-6.4 12.8-16 12.8h-220.8c12.8 32 22.4 86.4 25.6 131.2 6.4 0 12.8 0 19.2 0 44.8 0 92.8 22.4 131.2 60.8 54.4 54.4 73.6 128 51.2 176 35.2 3.2 64 32 64 70.4zM416 835.2c0 54.4 41.6 96 96 96s96-41.6 96-96c0-16-3.2-32-12.8-48-25.6 12.8-54.4 22.4-83.2 22.4s-57.6-9.6-83.2-22.4c-9.6 16-12.8 32-12.8 48zM188.8 489.6c-25.6 25.6-44.8 57.6-51.2 89.6-6.4 28.8 0 51.2 16 67.2s38.4 22.4 67.2 16c28.8-3.2 57.6-19.2 80-44.8-12.8-41.6-22.4-89.6-22.4-140.8 0-12.8 0-25.6 3.2-35.2-32 3.2-64 22.4-92.8 48zM550.4-32h-89.6c-201.6 0-361.6 128-371.2 320h240c0 0 0 0 0 0s0 0 0 0h364.8c0 0 0 0 0 0h227.2c-9.6-192-169.6-320-371.2-320zM339.2 320c-19.2 64-28.8 99.2-28.8 153.6 0 124.8 51.2 233.6 121.6 278.4 0 0 0 0 0 0s0 0 0 0c25.6 16 51.2 25.6 76.8 25.6 28.8 0 54.4-9.6 76.8-22.4 0 0 0 0 0 0s0 0 0 0c41.6-25.6 76.8-73.6 96-134.4 0 0 0 0 0 0 16-41.6 22.4-92.8 22.4-144 0-54.4-9.6-89.6-28.8-153.6h-336zM918.4 620.8c-6.4-32-22.4-60.8-51.2-89.6-38.4-38.4-89.6-57.6-128-51.2 0 48-9.6 96-22.4 137.6 6.4 12.8 16 22.4 28.8 35.2 51.2 51.2 124.8 67.2 156.8 35.2 16-12.8 22.4-38.4 16-67.2zM934.4 716.8c-22.4 0-38.4 19.2-38.4 41.6s19.2 38.4 41.6 38.4 38.4-19.2 38.4-38.4-19.2-41.6-41.6-41.6z" />
<glyph unicode="&#xe92a;" glyph-name="book" horiz-adv-x="736" d="M0-16c0-25.6 22.4-48 48-48h640c25.6 0 48 22.4 48 48v736c0 25.6-22.4 48-48 48h-576c-44.8 0-80 35.2-80 80s35.2 80 80 80h592c9.6 0 16 6.4 16 16s-6.4 16-16 16h-592c-60.8 0-112-51.2-112-112 0-3.2 0-6.4 0-12.8 0 0 0-3.2 0-3.2v-848zM32 771.2c19.2-22.4 48-35.2 80-35.2h576c9.6 0 16-6.4 16-16v-736c0-9.6-6.4-16-16-16h-640c-9.6 0-16 6.4-16 16v787.2zM704 864h-576c-9.6 0-16-6.4-16-16s6.4-16 16-16h576c9.6 0 16 6.4 16 16s-6.4 16-16 16z" />
<glyph unicode="&#xe92b;" glyph-name="bowl" horiz-adv-x="1152" d="M288 51.2c0-3.2 0-3.2 0 0v-67.2c0-25.6 22.4-48 48-48h480c25.6 0 48 22.4 48 48v64c0 0 0 0 0 0 166.4 102.4 278.4 297.6 288 508.8 0 12.8-3.2 25.6-12.8 35.2s-22.4 16-35.2 16h-524.8l326.4 326.4c6.4 6.4 6.4 16 0 22.4s-16 6.4-22.4 0l-348.8-348.8h-486.4c-12.8 0-25.6-6.4-35.2-16s-12.8-19.2-12.8-35.2c12.8-208 124.8-406.4 288-505.6zM832-16c0-9.6-6.4-16-16-16h-480c-9.6 0-16 6.4-16 16v48h512v-48zM1104 576c3.2 0 9.6-3.2 12.8-6.4s3.2-6.4 3.2-9.6c-12.8-211.2-128-403.2-294.4-496h-288c-211.2 92.8-243.2 358.4-243.2 508.8 0 0 0 0 0 3.2h809.6zM38.4 569.6c3.2 3.2 6.4 6.4 9.6 6.4h214.4c0 0 0 0 0-3.2 0-243.2 73.6-422.4 208-508.8h-144c-166.4 92.8-281.6 284.8-294.4 496 0 3.2 3.2 6.4 6.4 9.6z" />
<glyph unicode="&#xe92c;" glyph-name="brick-wall" horiz-adv-x="1344" d="M48 672h352c25.6 0 48 22.4 48 48v192c0 25.6-22.4 48-48 48h-352c-25.6 0-48-22.4-48-48v-192c0-25.6 22.4-48 48-48zM32 912c0 9.6 6.4 16 16 16h352c9.6 0 16-6.4 16-16v-192c0-9.6-6.4-16-16-16h-352c-9.6 0-16 6.4-16 16v192zM992 720v192c0 25.6-22.4 48-48 48h-352c-25.6 0-48-22.4-48-48v-192c0-25.6 22.4-48 48-48h352c25.6 0 48 22.4 48 48zM576 720v192c0 9.6 6.4 16 16 16h352c9.6 0 16-6.4 16-16v-192c0-9.6-6.4-16-16-16h-352c-9.6 0-16 6.4-16 16zM1136 928h176c9.6 0 16 6.4 16 16s-6.4 16-16 16h-176c-25.6 0-48-22.4-48-48v-192c0-25.6 22.4-48 48-48h176c9.6 0 16 6.4 16 16s-6.4 16-16 16h-176c-9.6 0-16 6.4-16 16v192c0 9.6 6.4 16 16 16zM1296 576h-352c-25.6 0-48-22.4-48-48v-160c0-25.6 22.4-48 48-48h352c25.6 0 48 22.4 48 48v160c0 25.6-22.4 48-48 48zM1312 368c0-9.6-6.4-16-16-16h-352c-9.6 0-16 6.4-16 16v160c0 9.6 6.4 16 16 16h352c9.6 0 16-6.4 16-16v-160zM752 576h-352c-25.6 0-48-22.4-48-48v-160c0-25.6 22.4-48 48-48h352c25.6 0 48 22.4 48 48v160c0 25.6-22.4 48-48 48zM768 368c0-9.6-6.4-16-16-16h-352c-9.6 0-16 6.4-16 16v160c0 9.6 6.4 16 16 16h352c9.6 0 16-6.4 16-16v-160zM208 352h-176c-9.6 0-16-6.4-16-16s6.4-16 16-16h176c25.6 0 48 22.4 48 48v160c0 25.6-22.4 48-48 48h-176c-9.6 0-16-6.4-16-16s6.4-16 16-16h176c9.6 0 16-6.4 16-16v-160c0-9.6-6.4-16-16-16zM48-64h352c25.6 0 48 22.4 48 48v192c0 25.6-22.4 48-48 48h-352c-25.6 0-48-22.4-48-48v-192c0-25.6 22.4-48 48-48zM32 176c0 9.6 6.4 16 16 16h352c9.6 0 16-6.4 16-16v-192c0-9.6-6.4-16-16-16h-352c-9.6 0-16 6.4-16 16v192zM544 176v-192c0-25.6 22.4-48 48-48h352c25.6 0 48 22.4 48 48v192c0 25.6-22.4 48-48 48h-352c-25.6 0-48-22.4-48-48zM960 176v-192c0-9.6-6.4-16-16-16h-352c-9.6 0-16 6.4-16 16v192c0 9.6 6.4 16 16 16h352c9.6 0 16-6.4 16-16zM1136 192h176c9.6 0 16 6.4 16 16s-6.4 16-16 16h-176c-25.6 0-48-22.4-48-48v-192c0-25.6 22.4-48 48-48h176c9.6 0 16 6.4 16 16s-6.4 16-16 16h-176c-9.6 0-16 6.4-16 16v192c0 9.6 6.4 16 16 16z" />
<glyph unicode="&#xe92d;" glyph-name="brush-paint" horiz-adv-x="1120" d="M972.8 940.8l-454.4-371.2c-6.4-6.4-6.4-16-3.2-22.4 6.4-6.4 16-6.4 22.4-3.2l454.4 371.2c22.4 19.2 54.4 16 76.8-3.2s22.4-51.2 6.4-73.6l-364.8-460.8c-6.4-6.4-3.2-16 3.2-22.4 3.2-3.2 6.4-3.2 9.6-3.2s9.6 3.2 12.8 6.4l364.8 457.6c28.8 35.2 25.6 86.4-9.6 118.4-32 32-83.2 35.2-118.4 6.4zM297.6-64c70.4 0 140.8 16 198.4 48 140.8 76.8 172.8 230.4 179.2 291.2 0 16-3.2 32-16 44.8l-147.2 144c-9.6 9.6-22.4 16-35.2 16-240 16-281.6-153.6-307.2-262.4v-6.4c-19.2-73.6-92.8-96-134.4-105.6-12.8-3.2-22.4-9.6-25.6-22.4s-3.2-25.6 6.4-35.2c54.4-70.4 163.2-112 281.6-112zM32 73.6c0 0 3.2 0 0 0 51.2 12.8 140.8 41.6 163.2 131.2v6.4c25.6 105.6 60.8 236.8 249.6 236.8 9.6 0 19.2 0 28.8 0 6.4 0 9.6-3.2 12.8-6.4l147.2-144c6.4-3.2 6.4-12.8 6.4-19.2-6.4-57.6-32-198.4-160-268.8-51.2-28.8-115.2-44.8-182.4-44.8-105.6 0-211.2 38.4-265.6 102.4 0 3.2 0 3.2 0 6.4z" />
<glyph unicode="&#xe92e;" glyph-name="brush-roll" horiz-adv-x="896" d="M768 720v192c0 25.6-22.4 48-48 48h-512c-25.6 0-48-22.4-48-48v-192c0-25.6 22.4-48 48-48h512c25.6 0 48 22.4 48 48zM192 720v192c0 9.6 6.4 16 16 16h512c9.6 0 16-6.4 16-16v-192c0-9.6-6.4-16-16-16h-512c-9.6 0-16 6.4-16 16zM48 800h35.2c9.6 0 16 6.4 16 16s-9.6 16-16 16h-35.2c-25.6 0-48-19.2-48-44.8v-230.4c0-25.6 22.4-44.8 48-44.8h384c9.6 0 16-9.6 16-19.2v-57.6c0-9.6 6.4-16 16-16s16 6.4 16 16v57.6c0 25.6-22.4 51.2-48 51.2h-384c-9.6 0-16 3.2-16 12.8v230.4c0 6.4 6.4 12.8 16 12.8zM848 835.2c-9.6 0-16-6.4-16-16s6.4-16 16-16h32c9.6 0 16 6.4 16 16s-6.4 16-16 16h-32zM576 304c0 25.6-22.4 48-48 48h-128c-25.6 0-48-22.4-48-48v-320c0-25.6 22.4-48 48-48h128c25.6 0 48 22.4 48 48v320zM544-16c0-9.6-6.4-16-16-16h-128c-9.6 0-16 6.4-16 16v320c0 9.6 6.4 16 16 16h128c9.6 0 16-6.4 16-16v-320z" />
<glyph unicode="&#xe92f;" glyph-name="brush" horiz-adv-x="736" d="M0 912v-256c0-25.6 22.4-48 48-48h640c25.6 0 48 22.4 48 48v256c0 25.6-22.4 48-48 48h-128c-9.6 0-16-6.4-16-16v-70.4l-41.6 80c-3.2 3.2-9.6 6.4-12.8 6.4h-441.6c-25.6 0-48-22.4-48-48zM144 784c9.6 0 16 6.4 16 16v128h96v-192c0-9.6 6.4-16 16-16s16 6.4 16 16v192h192l67.2-128c3.2-6.4 9.6-9.6 19.2-9.6 3.2 3.2 9.6 9.6 9.6 16v121.6h112c9.6 0 16-6.4 16-16v-256c0-9.6-6.4-16-16-16h-640c-9.6 0-16 6.4-16 16v256c0 9.6 6.4 16 16 16h80v-128c0-9.6 6.4-16 16-16zM0 432c0-25.6 22.4-48 48-48h185.6c22.4 0 44.8-9.6 60.8-28.8 16-16 22.4-38.4 19.2-60.8l-25.6-249.6c0-57.6 51.2-105.6 112-105.6s112 48 112 108.8l-28.8 246.4c-3.2 22.4 6.4 44.8 19.2 60.8 16 19.2 38.4 28.8 60.8 28.8h121.6c25.6 0 48 22.4 48 48v112c0 9.6-6.4 16-16 16s-12.8-6.4-12.8-16v-112c0-9.6-6.4-16-16-16h-121.6c-32 0-64-12.8-86.4-38.4s-32-54.4-28.8-86.4l28.8-246.4c0-41.6-35.2-76.8-80-76.8s-80 35.2-80 73.6l28.8 249.6c3.2 32-6.4 64-28.8 86.4-22.4 25.6-54.4 38.4-86.4 38.4h-185.6c-9.6 0-16 6.4-16 16v112c0 9.6-6.4 16-16 16s-16-6.4-16-16v-112z" />
<glyph unicode="&#xe930;" glyph-name="bug" d="M-16 368c0-9.6 6.4-16 16-16h128c9.6 0 16 6.4 16 16s-6.4 16-16 16h-128c-9.6 0-16-6.4-16-16zM256 694.4l-102.4 96c-6.4 6.4-16 6.4-22.4 0s-6.4-16 0-22.4l102.4-96c0 0 0 0 3.2 0-57.6-80-92.8-182.4-92.8-291.2 0-89.6 22.4-172.8 60.8-243.2l-96-96c-6.4-6.4-6.4-16 0-22.4 3.2-3.2 6.4-3.2 12.8-3.2s9.6 0 12.8 3.2l89.6 89.6c64-105.6 169.6-172.8 288-172.8s220.8 67.2 291.2 169.6l89.6-89.6c3.2-3.2 6.4-3.2 12.8-3.2s9.6 0 12.8 3.2c6.4 6.4 6.4 16 0 22.4l-96 96c35.2 64 57.6 137.6 60.8 217.6h108.8c9.6 0 16 6.4 16 16s-6.4 16-16 16h-112c0 108.8-35.2 208-92.8 288 0 0 0 0 3.2 0l102.4 96c6.4 6.4 6.4 16 0 22.4s-16 6.4-22.4 0l-102.4-96c-19.2 22.4-41.6 41.6-67.2 60.8 0 0 0 0 0 0 0 28.8-16 57.6-41.6 76.8 0 0 3.2 0 3.2 3.2l96 96c6.4 6.4 6.4 16 0 22.4s-16 6.4-22.4 0l-96-96c-3.2-3.2-3.2-6.4-3.2-9.6-32 19.2-76.8 28.8-128 28.8-48 0-89.6-9.6-124.8-28.8 0 3.2-3.2 6.4-3.2 6.4l-102.4 96c-6.4 12.8-16 9.6-22.4 3.2s-6.4-16 0-22.4l102.4-96c0 0 0 0 0 0-25.6-22.4-41.6-48-41.6-80 0-3.2 0-3.2 0-3.2-22.4-16-41.6-35.2-60.8-57.6zM508.8 848c83.2 0 153.6-38.4 160-86.4-51.2-48-105.6-73.6-160-73.6 0 0 0 0 0 0-83.2 0-144 57.6-160 73.6 6.4 48 76.8 86.4 160 86.4zM339.2 729.6c28.8-25.6 89.6-70.4 169.6-70.4 0 0 0 0 0 0s3.2 0 3.2 0v-51.2c0-9.6 6.4-16 16-16s16 6.4 16 16v51.2c48 9.6 92.8 32 137.6 70.4 102.4-73.6 166.4-208 166.4-352 0-211.2-134.4-387.2-304-406.4v508.8c0 9.6-6.4 16-16 16s-16-6.4-16-16v-512c0 0 0 0 0 0-185.6 0-336 182.4-336 409.6 0 144 60.8 275.2 163.2 352z" />
<glyph unicode="&#xe931;" glyph-name="bulb" horiz-adv-x="704" d="M512 96h-288c-9.6 0-16-6.4-16-16s6.4-16 16-16h288c9.6 0 16 6.4 16 16s-6.4 16-16 16zM528 16c0 9.6-6.4 16-16 16h-288c-9.6 0-16-6.4-16-16s6.4-16 16-16h288c9.6 0 16 6.4 16 16zM288-32c-9.6 0-16-6.4-16-16s6.4-16 16-16h160c9.6 0 16 6.4 16 16s-6.4 16-16 16h-160zM544 144v19.2c0 80 28.8 160 86.4 233.6 48 60.8 73.6 134.4 73.6 214.4 0 192-156.8 348.8-352 348.8-12.8 0-25.6 0-41.6-3.2-153.6-16-284.8-140.8-307.2-294.4-16-108.8 19.2-214.4 92.8-291.2 60.8-64 96-144 96-224v-3.2c0-9.6 6.4-16 16-16h320c9.6 0 16 6.4 16 16zM288 512h-57.6c-32 0-57.6 28.8-57.6 57.6s25.6 57.6 57.6 57.6 57.6-22.4 57.6-51.2v-64zM384 160h-64v320h64v-320zM512 160h-96v320h57.6c48 0 89.6 41.6 89.6 89.6s-38.4 89.6-89.6 89.6-89.6-35.2-89.6-83.2v-64h-64v64c0 48-38.4 86.4-89.6 86.4s-89.6-41.6-89.6-89.6 41.6-92.8 89.6-92.8h57.6v-320h-64c-3.2 83.2-38.4 166.4-102.4 233.6-67.2 70.4-99.2 166.4-83.2 265.6 19.2 140.8 137.6 252.8 278.4 268.8 192 22.4 355.2-128 355.2-316.8 0-70.4-22.4-137.6-67.2-195.2-60.8-76.8-92.8-163.2-92.8-252.8v-3.2zM416 512v64c0 28.8 25.6 54.4 57.6 54.4s57.6-28.8 57.6-57.6-28.8-60.8-57.6-60.8h-57.6z" />
<glyph unicode="&#xe932;" glyph-name="calculation" d="M0 528c0-25.6 22.4-48 48-48h384c25.6 0 48 22.4 48 48v384c0 25.6-22.4 48-48 48h-384c-25.6 0-48-22.4-48-48v-384zM32 912c0 9.6 6.4 16 16 16h384c9.6 0 16-6.4 16-16v-384c0-9.6-6.4-16-16-16h-384c-9.6 0-16 6.4-16 16v384zM1024 912c0 25.6-22.4 48-48 48h-384c-25.6 0-48-22.4-48-48v-384c0-25.6 22.4-48 48-48h384c25.6 0 48 22.4 48 48v384zM992 528c0-9.6-6.4-16-16-16h-384c-9.6 0-16 6.4-16 16v384c0 9.6 6.4 16 16 16h384c9.6 0 16-6.4 16-16v-384zM0-16c0-25.6 22.4-48 48-48h384c25.6 0 48 22.4 48 48v384c0 25.6-22.4 48-48 48h-384c-25.6 0-48-22.4-48-48v-384zM32 368c0 9.6 6.4 16 16 16h384c9.6 0 16-6.4 16-16v-384c0-9.6-6.4-16-16-16h-384c-9.6 0-16 6.4-16 16v384zM592-64h384c25.6 0 48 22.4 48 48v384c0 25.6-22.4 48-48 48h-384c-25.6 0-48-22.4-48-48v-384c0-25.6 22.4-48 48-48zM576 368c0 9.6 6.4 16 16 16h384c9.6 0 16-6.4 16-16v-384c0-9.6-6.4-16-16-16h-384c-9.6 0-16 6.4-16 16v384zM160 704h64v-64c0-9.6 6.4-16 16-16s16 6.4 16 16v64h64c9.6 0 16 6.4 16 16s-6.4 16-16 16h-64v64c0 9.6-6.4 16-16 16s-16-6.4-16-16v-64h-64c-9.6 0-16-6.4-16-16s6.4-16 16-16zM864 736h-160c-9.6 0-16-6.4-16-16s6.4-16 16-16h160c9.6 0 16 6.4 16 16s-6.4 16-16 16zM704 192h160c9.6 0 16 6.4 16 16s-6.4 16-16 16h-160c-9.6 0-16-6.4-16-16s6.4-16 16-16zM704 128h160c9.6 0 16 6.4 16 16s-6.4 16-16 16h-160c-9.6 0-16-6.4-16-16s6.4-16 16-16zM160 80c3.2-3.2 6.4-3.2 12.8-3.2s9.6 0 12.8 3.2l64 64 64-64c3.2-3.2 6.4-3.2 12.8-3.2s9.6 0 12.8 3.2c6.4 6.4 6.4 16 0 22.4l-64 64 64 64c6.4 6.4 6.4 16 0 22.4s-16 6.4-22.4 0l-64-64-64 64c-6.4 6.4-16 6.4-22.4 0s-6.4-16 0-22.4l64-64-64-64c-12.8-6.4-12.8-16-6.4-22.4z" />
<glyph unicode="&#xe933;" glyph-name="calendar" d="M48 832h80c9.6 0 16 6.4 16 16s-6.4 16-16 16h-80c-25.6 0-48-22.4-48-48v-832c0-25.6 22.4-48 48-48h928c25.6 0 48 22.4 48 48v832c0 25.6-22.4 48-48 48h-80c-9.6 0-16-6.4-16-16s6.4-16 16-16h80c9.6 0 16-6.4 16-16v-176h-960v176c0 9.6 6.4 16 16 16zM992 608v-624c0-9.6-6.4-16-16-16h-928c-9.6 0-16 6.4-16 16v624h960zM608 832c9.6 0 16 6.4 16 16s-6.4 16-16 16h-192c-9.6 0-16-6.4-16-16s6.4-16 16-16h192zM336 96h96c12.8 0 22.4 6.4 32 12.8 9.6-6.4 19.2-12.8 32-12.8h96c25.6 0 48 22.4 48 48v96c0 6.4-3.2 16-6.4 22.4 6.4-3.2 12.8-6.4 22.4-6.4h96c25.6 0 48 22.4 48 48v96c0 25.6-22.4 48-48 48h-96c-12.8 0-22.4-6.4-32-12.8-9.6 6.4-19.2 12.8-32 12.8h-96c-12.8 0-22.4-6.4-32-12.8-9.6 6.4-19.2 12.8-32 12.8h-96c-25.6 0-48-22.4-48-48v-96c0-12.8 6.4-22.4 12.8-32-6.4-9.6-12.8-19.2-12.8-32v-96c0-25.6 22.4-48 48-48zM432 128h-96c-9.6 0-16 6.4-16 16v96c0 9.6 6.4 16 16 16h96c9.6 0 16-6.4 16-16v-96c0-9.6-6.4-16-16-16zM608 144c0-9.6-6.4-16-16-16h-96c-9.6 0-16 6.4-16 16v96c0 9.6 6.4 16 16 16h96c9.6 0 16-6.4 16-16v-96zM656 416h96c9.6 0 16-6.4 16-16v-96c0-9.6-6.4-16-16-16h-96c-9.6 0-16 6.4-16 16v96c0 9.6 6.4 16 16 16zM496 416h96c9.6 0 16-6.4 16-16v-96c0-9.6-6.4-16-16-16h-96c-9.6 0-16 6.4-16 16v96c0 9.6 6.4 16 16 16zM320 400c0 9.6 6.4 16 16 16h96c9.6 0 16-6.4 16-16v-96c0-9.6-6.4-16-16-16h-96c-9.6 0-16 6.4-16 16v96zM352 816v64c0 44.8-35.2 80-80 80s-80-35.2-80-80v-64c0-44.8 35.2-80 80-80s80 35.2 80 80zM224 816v64c0 25.6 22.4 48 48 48s48-22.4 48-48v-64c0-25.6-22.4-48-48-48s-48 22.4-48 48zM832 816v64c0 44.8-35.2 80-80 80s-80-35.2-80-80v-64c0-44.8 35.2-80 80-80s80 35.2 80 80zM704 816v64c0 25.6 22.4 48 48 48s48-22.4 48-48v-64c0-25.6-22.4-48-48-48s-48 22.4-48 48z" />
<glyph unicode="&#xe934;" glyph-name="camera" horiz-adv-x="1216" d="M48-64h1120c25.6 0 48 22.4 48 48v800c0 25.6-22.4 48-48 48h-1120c-25.6 0-48-22.4-48-48v-800c0-25.6 22.4-48 48-48zM32 784c0 9.6 6.4 16 16 16h1120c9.6 0 16-6.4 16-16v-800c0-9.6-6.4-16-16-16h-1120c-9.6 0-16 6.4-16 16v800zM608 128c160 0 288 128 288 288s-128 288-288 288-288-128-288-288c0-160 128-288 288-288zM608 672c140.8 0 256-115.2 256-256s-115.2-256-256-256-256 115.2-256 256c0 140.8 115.2 256 256 256zM608 214.4c9.6 0 16 6.4 16 16s-6.4 16-16 16c-92.8 0-169.6 76.8-169.6 169.6 0 9.6-6.4 16-16 16s-16-6.4-16-16c0-112 89.6-201.6 201.6-201.6zM518.4 860.8c9.6 0 16 6.4 16 16 0 28.8 22.4 51.2 51.2 51.2h172.8c28.8 0 51.2-22.4 51.2-51.2 0-9.6 6.4-16 16-16s16 6.4 16 16c0 44.8-38.4 83.2-83.2 83.2h-172.8c-44.8 0-83.2-38.4-83.2-83.2 0-6.4 9.6-16 16-16zM208 864c9.6 0 16 6.4 16 16 0 25.6 22.4 48 48 48s48-22.4 48-48c0-9.6 6.4-16 16-16s16 6.4 16 16c0 44.8-35.2 80-80 80s-80-35.2-80-80c0-9.6 6.4-16 16-16z" />
<glyph unicode="&#xe935;" glyph-name="candle" horiz-adv-x="672" d="M0 80v-96c0-25.6 22.4-48 48-48h576c25.6 0 48 22.4 48 48v96c0 25.6-22.4 48-48 48h-19.2c3.2 6.4 3.2 9.6 3.2 16v384c0 25.6-22.4 48-48 48h-208v96c0 9.6-6.4 16-16 16s-16-6.4-16-16v-96h-208c-25.6 0-48-22.4-48-48v-384c0-6.4 0-9.6 3.2-16h-19.2c-25.6 0-48-22.4-48-48zM96 528c0 9.6 6.4 16 16 16h304v-64c0-9.6 6.4-16 16-16s16 6.4 16 16v64h112c9.6 0 16-6.4 16-16v-384c0-9.6-6.4-16-16-16h-448c-9.6 0-16 6.4-16 16v384zM112 96h512c9.6 0 16-6.4 16-16v-96c0-9.6-6.4-16-16-16h-576c-9.6 0-16 6.4-16 16v96c0 9.6 6.4 16 16 16h64zM265.6 611.2c6.4 3.2 9.6 6.4 9.6 12.8 6.4 83.2 41.6 124.8 60.8 140.8 54.4-57.6 70.4-140.8 70.4-140.8 0-6.4 6.4-12.8 12.8-12.8 6.4-3.2 12.8 0 16 6.4 38.4 51.2 54.4 102.4 48 156.8-16 108.8-121.6 182.4-128 185.6s-12.8 3.2-19.2 0c-86.4-60.8-134.4-124.8-140.8-195.2-6.4-86.4 51.2-147.2 51.2-147.2 3.2-3.2 6.4-3.2 12.8-3.2 3.2-3.2 3.2-3.2 6.4-3.2zM227.2 761.6c6.4 57.6 44.8 112 118.4 166.4 25.6-19.2 92.8-80 105.6-156.8 3.2-35.2-3.2-70.4-22.4-105.6-12.8 35.2-35.2 92.8-80 134.4-3.2 3.2-6.4 3.2-9.6 3.2s-6.4 0-9.6-3.2c-3.2 0-60.8-38.4-80-131.2-12.8 22.4-25.6 54.4-22.4 92.8zM176 176c9.6 0 16 6.4 16 16v288c0 9.6-6.4 16-16 16s-16-6.4-16-16v-288c0-9.6 6.4-16 16-16z" />
<glyph unicode="&#xe936;" glyph-name="candles" d="M217.6 854.4c-22.4-41.6 9.6-80 32-96 0 0 3.2-3.2 6.4-3.2s9.6 3.2 12.8 6.4c32 38.4 44.8 80 41.6 115.2-6.4 51.2-41.6 80-44.8 80-6.4 3.2-12.8 6.4-19.2 0-3.2-3.2-6.4-9.6-6.4-16 6.4-28.8-3.2-44.8-22.4-83.2v-3.2zM246.4 838.4l3.2 3.2c9.6 22.4 16 38.4 22.4 57.6 3.2-6.4 6.4-16 6.4-25.6 3.2-25.6-6.4-51.2-22.4-80-9.6 12.8-19.2 28.8-9.6 44.8zM633.6 649.6c-22.4-41.6 9.6-80 32-96 3.2-3.2 6.4-3.2 9.6-3.2s9.6 3.2 12.8 6.4c32 38.4 44.8 80 41.6 115.2-6.4 51.2-41.6 76.8-44.8 80-6.4 3.2-12.8 3.2-19.2 0s-9.6-9.6-6.4-16c6.4-28.8-3.2-48-22.4-83.2l-3.2-3.2zM662.4 633.6l3.2 3.2c9.6 22.4 19.2 38.4 25.6 54.4 3.2-6.4 6.4-16 6.4-25.6 3.2-25.6-6.4-51.2-22.4-80-12.8 16-22.4 32-12.8 48zM16-38.4c-3.2-6.4-3.2-12.8 0-16 0-6.4 6.4-9.6 12.8-9.6h947.2c9.6 0 16 6.4 16 16 0 3.2 0 6.4-3.2 9.6-44.8 64-83.2 102.4-121.6 121.6 60.8 57.6 96 134.4 96 217.6 0 105.6-48 201.6-121.6 240-6.4 3.2-12.8 6.4-22.4 6.4h-300.8c-9.6 0-16-3.2-22.4-6.4-70.4-35.2-121.6-134.4-121.6-240 0-76.8 28.8-147.2 80-204.8h-102.4v592c0 25.6-22.4 48-48 48h-128c-25.6 0-48-22.4-48-48v-592c0-3.2 3.2-9.6 3.2-9.6-32-12.8-64-38.4-96-92.8l-19.2-32zM406.4 300.8c0 89.6 44.8 179.2 102.4 211.2 3.2 0 3.2 0 6.4 0h124.8v-192c0-9.6 6.4-16 16-16s16 6.4 16 16v192h64v-96c0-9.6 6.4-16 16-16s16 6.4 16 16v96h51.2c3.2 0 6.4 0 6.4-3.2 60.8-32 102.4-118.4 102.4-211.2 0-76.8-32-147.2-89.6-198.4-3.2-3.2-3.2-3.2-3.2-6.4-9.6 3.2-19.2 3.2-28.8 3.2h-307.2c0 0 0 0 0 0-60.8 54.4-92.8 124.8-92.8 204.8zM160 96v592c0 9.6 6.4 16 16 16h80v-64c0-9.6 6.4-16 16-16s16 6.4 16 16v64h16c9.6 0 16-6.4 16-16v-592h-131.2c-9.6 0-19.2 0-28.8 0 0-3.2 0 0 0 0zM64-25.6c32 57.6 73.6 89.6 121.6 89.6h620.8c48 0 86.4-25.6 137.6-96h-883.2l3.2 6.4z" />
<glyph unicode="&#xe937;" glyph-name="car" horiz-adv-x="1408" d="M1305.6 592c35.2 16 67.2 35.2 92.8 54.4 6.4 6.4 9.6 16 3.2 22.4s-16 9.6-22.4 3.2c-35.2-22.4-73.6-44.8-121.6-64l-60.8 227.2c-19.2 73.6-86.4 124.8-163.2 124.8h-659.2c-76.8 0-144-51.2-169.6-124.8l-57.6-227.2c0 0-3.2 0-3.2 0-44.8 19.2-86.4 38.4-118.4 64-6.4 3.2-19.2 3.2-22.4-6.4s-3.2-16 3.2-22.4c25.6-16 54.4-32 89.6-48-57.6-25.6-96-89.6-96-163.2v-128c0-80 54.4-150.4 128-169.6 0-3.2 0-3.2 0-6.4v-44.8c0-80 64-147.2 144-147.2s144 67.2 144 147.2v44.8h576v-44.8c0-83.2 64-147.2 144-147.2s144 67.2 144 147.2v44.8c0 3.2 0 3.2 0 6.4 73.6 19.2 128 89.6 128 169.6v128c0 70.4-35.2 131.2-102.4 160zM236.8 825.6c19.2 60.8 73.6 102.4 137.6 102.4h659.2c64 0 118.4-41.6 137.6-102.4l57.6-217.6c-3.2 0-6.4 0-12.8 0v-19.2c-140.8-48-320-76.8-512-76.8-198.4 0-384 28.8-528 83.2l60.8 230.4zM384 83.2c0-64-51.2-115.2-112-115.2s-112 51.2-112 115.2v44.8c0 0 0 0 0 0 6.4 0 9.6 0 16 0h208v-44.8zM1248 128v-44.8c0-64-51.2-115.2-112-115.2s-112 51.2-112 115.2v44.8h208c6.4 0 9.6 0 16 0 0 0 0 0 0 0zM1376 304c0-80-64-144-144-144h-1056c-80 0-144 64-144 144v128c0 70.4 51.2 131.2 108.8 140.8 150.4-57.6 352-92.8 563.2-92.8 208 0 406.4 32 553.6 89.6 70.4-16 118.4-70.4 118.4-137.6v-128zM230.4 464c-54.4 0-96-41.6-96-96s41.6-96 96-96 96 41.6 96 96-44.8 96-96 96zM230.4 304c-35.2 0-64 28.8-64 64s28.8 64 64 64 64-28.8 64-64-28.8-64-64-64zM1190.4 464c-54.4 0-96-41.6-96-96s41.6-96 96-96 96 41.6 96 96-44.8 96-96 96zM1190.4 304c-35.2 0-64 28.8-64 64s28.8 64 64 64 64-28.8 64-64-28.8-64-64-64zM598.4 704c3.2 0 9.6 0 12.8 3.2l86.4 86.4c6.4 6.4 6.4 16 0 22.4s-16 6.4-22.4 0l-86.4-86.4c-6.4-6.4-6.4-16 0-22.4 0-3.2 3.2-3.2 9.6-3.2zM598.4 566.4c3.2 0 9.6 0 12.8 3.2l227.2 227.2c6.4 6.4 6.4 16 0 22.4s-16 6.4-22.4 0l-227.2-227.2c-6.4-6.4-6.4-16 0-22.4 0 0 3.2-3.2 9.6-3.2zM688 400c-9.6 0-16-6.4-16-16v-96c0-9.6 6.4-16 16-16s16 6.4 16 16v96c0 9.6-6.4 16-16 16zM560 400c-9.6 0-16-6.4-16-16v-96c0-9.6 6.4-16 16-16s16 6.4 16 16v96c0 9.6-6.4 16-16 16zM816 400c-9.6 0-16-6.4-16-16v-96c0-9.6 6.4-16 16-16s16 6.4 16 16v96c0 9.6-6.4 16-16 16z" />
<glyph unicode="&#xe938;" glyph-name="card" d="M416 624c41.6 0 73.6 32 73.6 73.6s-32 73.6-73.6 73.6-73.6-32-73.6-73.6 35.2-73.6 73.6-73.6zM416 742.4c22.4 0 41.6-19.2 41.6-41.6s-19.2-44.8-41.6-44.8-41.6 19.2-41.6 41.6 19.2 44.8 41.6 44.8zM323.2 464c3.2 0 9.6 3.2 12.8 6.4l83.2 86.4 28.8-28.8c6.4-6.4 12.8-6.4 19.2-6.4s12.8 3.2 19.2 9.6l137.6 140.8 118.4-121.6c6.4-6.4 16-6.4 22.4 0s6.4 16 0 22.4l-124.8 121.6c-3.2 6.4-9.6 9.6-19.2 9.6s-12.8-3.2-19.2-9.6l-137.6-140.8-28.8 28.8c-9.6 9.6-28.8 9.6-38.4 0l-86.4-89.6c-6.4-6.4-6.4-16 0-22.4 3.2-6.4 9.6-6.4 12.8-6.4zM774.4 224h-480c-9.6 0-16-6.4-16-16s6.4-16 12.8-16h480c9.6 0 16 6.4 16 16s-3.2 16-12.8 16zM774.4 313.6h-480c-9.6 0-16-6.4-16-16s6.4-16 16-16h480c9.6 0 16 6.4 16 16s-6.4 16-16 16zM515.2 137.6h-224c-9.6 0-16-6.4-16-16s6.4-16 16-16h220.8c9.6 0 16 6.4 16 16s-3.2 16-12.8 16zM864 956.8h-704c-44.8 0-80-35.2-80-80v-864c0-44.8 35.2-80 80-80h704c44.8 0 80 35.2 80 80v864c0 44.8-35.2 80-80 80zM912 12.8c0-25.6-22.4-48-48-48h-704c-25.6 0-48 22.4-48 48v864c0 25.6 22.4 48 48 48h704c25.6 0 48-22.4 48-48v-864z" />
<glyph unicode="&#xe939;" glyph-name="caret-down" d="M512 44.8c-19.2 0-41.6 9.6-51.2 25.6l-451.2 636.8c-12.8 19.2-16 44.8-3.2 67.2 9.6 22.4 32 35.2 57.6 35.2h902.4c25.6 0 44.8-12.8 57.6-35.2 9.6-22.4 9.6-48-3.2-67.2l-457.6-636.8c-9.6-16-32-25.6-51.2-25.6zM60.8 777.6c-12.8 0-22.4-6.4-28.8-19.2s-3.2-22.4 3.2-32l451.2-636.8c12.8-16 41.6-16 51.2 0l451.2 636.8c6.4 9.6 6.4 22.4 3.2 32s-16 16-28.8 16h-902.4z" />
<glyph unicode="&#xe93a;" glyph-name="caret-fill-down" d="M16 681.6l460.8-528c19.2-22.4 54.4-22.4 73.6 0l457.6 528c25.6 32 6.4 80-35.2 80h-918.4c-44.8 0-64-48-38.4-80z" />
<glyph unicode="&#xe93b;" glyph-name="caret-fill-left" d="M745.6 944l-528-460.8c-22.4-19.2-22.4-54.4 0-73.6l528-460.8c32-25.6 80-6.4 80 35.2v918.4c-3.2 48-51.2 67.2-80 41.6z" />
<glyph unicode="&#xe93c;" glyph-name="caret-fill-right" d="M278.4-51.2l531.2 464c22.4 19.2 22.4 54.4 0 73.6l-531.2 460.8c-32 25.6-80 6.4-80-35.2v-928c0-41.6 48-64 80-35.2z" />
<glyph unicode="&#xe93d;" glyph-name="caret-fill-up" d="M1008 214.4l-460.8 528c-19.2 22.4-54.4 22.4-73.6 0l-457.6-528c-25.6-32-6.4-80 35.2-80h918.4c44.8 0 64 48 38.4 80z" />
<glyph unicode="&#xe93e;" glyph-name="caret-left" d="M828.8-67.2v0c-12.8 0-25.6 3.2-38.4 12.8l-633.6 451.2c-16 12.8-25.6 32-25.6 51.2s9.6 41.6 25.6 51.2l636.8 451.2c9.6 6.4 22.4 12.8 38.4 12.8 35.2 0 64-28.8 64-64v-902.4c0-19.2-6.4-35.2-19.2-44.8-12.8-12.8-32-19.2-48-19.2zM828.8 931.2c-6.4 0-12.8-3.2-19.2-6.4l-633.6-451.2c-9.6-6.4-12.8-16-12.8-25.6s6.4-19.2 12.8-25.6l636.8-451.2c6.4-3.2 12.8-6.4 19.2-6.4v0c9.6 0 16 3.2 22.4 9.6 3.2 3.2 9.6 12.8 9.6 22.4v902.4c-3.2 19.2-19.2 32-35.2 32z" />
<glyph unicode="&#xe93f;" glyph-name="caret-right" d="M195.2-67.2v0c-35.2 0-64 28.8-64 64v902.4c0 35.2 28.8 64 64 64 12.8 0 25.6-3.2 38.4-12.8l636.8-451.2c16-12.8 25.6-32 25.6-51.2s-9.6-41.6-25.6-51.2l-640-451.2c-9.6-9.6-22.4-12.8-35.2-12.8zM195.2 931.2c-16 0-32-12.8-32-32v-902.4c0-19.2 16-32 32-32v0c6.4 0 12.8 3.2 19.2 6.4l636.8 451.2c9.6 6.4 12.8 16 12.8 25.6s-6.4 19.2-12.8 25.6l-640 451.2c-3.2 3.2-9.6 6.4-16 6.4z" />
<glyph unicode="&#xe940;" glyph-name="caret-up" d="M963.2 64h-902.4c-22.4 0-44.8 12.8-57.6 35.2-9.6 22.4-9.6 48 3.2 67.2l454.4 636.8c12.8 16 32 25.6 51.2 25.6 22.4 0 41.6-9.6 51.2-25.6l451.2-636.8c12.8-19.2 16-44.8 3.2-67.2-9.6-22.4-32-35.2-54.4-35.2zM512 796.8c-9.6 0-19.2-6.4-25.6-12.8l-451.2-636.8c-6.4-9.6-6.4-22.4-3.2-35.2 6.4-9.6 16-16 28.8-16h902.4c12.8 0 22.4 6.4 28.8 16s6.4 22.4-3.2 35.2l-451.2 636.8c-6.4 9.6-16 12.8-25.6 12.8z" />
<glyph unicode="&#xe941;" glyph-name="carousal" horiz-adv-x="1056" d="M784 960h-512c-25.6 0-48-22.4-48-48v-928c0-25.6 22.4-48 48-48h512c25.6 0 48 22.4 48 48v928c0 25.6-22.4 48-48 48zM800-16c0-9.6-6.4-16-16-16h-512c-9.6 0-16 6.4-16 16v928c0 9.6 6.4 16 16 16h512c9.6 0 16-6.4 16-16v-928zM1014.4 51.2c-3.2 0-9.6-3.2-16 3.2l-67.2 64c-6.4 6.4-16 6.4-22.4 0s-6.4-16 0-22.4l67.2-64c9.6-9.6 22.4-12.8 32-12.8 6.4 0 12.8 0 19.2 3.2 19.2 6.4 28.8 25.6 28.8 44.8v764.8c0 19.2-9.6 35.2-28.8 44.8s-38.4 3.2-51.2-9.6l-70.4-64c-6.4-6.4-6.4-16 0-22.4s16-6.4 22.4 0l70.4 64c6.4 6.4 16 3.2 16 3.2 3.2-3.2 9.6-6.4 9.6-16v-761.6c0-12.8-6.4-16-9.6-19.2zM41.6 848c3.2 0 9.6 3.2 16-3.2l83.2-70.4c6.4-3.2 19.2-3.2 22.4 3.2s6.4 19.2 0 22.4l-83.2 70.4c-16 12.8-35.2 16-51.2 6.4-19.2-6.4-28.8-22.4-28.8-41.6v-771.2c0-19.2 9.6-35.2 28.8-44.8 6.4-3.2 12.8-3.2 19.2-3.2 12.8 0 22.4 3.2 32 12.8l80 67.2c6.4 6.4 6.4 16 3.2 22.4-6.4 6.4-16 6.4-22.4 3.2l-80-67.2c-6.4-6.4-16-3.2-16-3.2-6.4-3.2-12.8 3.2-12.8 12.8v771.2c0 9.6 6.4 12.8 9.6 12.8z" />
<glyph unicode="&#xe942;" glyph-name="cart-empty" horiz-adv-x="1152" d="M1136 672h-656c-9.6 0-16-6.4-16-16s6.4-16 16-16h636.8l-70.4-384h-672l-188.8 691.2c0 6.4-6.4 12.8-16 12.8h-137.6c-9.6 0-16-6.4-16-16s6.4-16 16-16h124.8l188.8-691.2c3.2-6.4 9.6-12.8 16-12.8h694.4c6.4 0 12.8 6.4 16 12.8l76.8 416c0 3.2 0 9.6-3.2 12.8 0 3.2-6.4 6.4-9.6 6.4zM534.4 28.8c0 51.2-41.6 92.8-92.8 92.8s-92.8-41.6-92.8-92.8 41.6-92.8 92.8-92.8 92.8 41.6 92.8 92.8zM380.8 28.8c0 32 25.6 60.8 60.8 60.8s60.8-25.6 60.8-60.8-25.6-60.8-60.8-60.8-60.8 25.6-60.8 60.8zM937.6 121.6c-51.2 0-92.8-41.6-92.8-92.8s41.6-92.8 92.8-92.8 92.8 41.6 92.8 92.8-41.6 92.8-92.8 92.8zM937.6-32c-32 0-60.8 25.6-60.8 60.8s25.6 60.8 60.8 60.8 60.8-25.6 60.8-60.8-25.6-60.8-60.8-60.8zM608 352v192c0 9.6-6.4 16-16 16s-16-6.4-16-16v-192c0-9.6 6.4-16 16-16s16 6.4 16 16zM832 352v192c0 9.6-6.4 16-16 16s-16-6.4-16-16v-192c0-9.6 6.4-16 16-16s16 6.4 16 16z" />
<glyph unicode="&#xe943;" glyph-name="cart-full" horiz-adv-x="1120" d="M1062.4 672h-598.4c-9.6 0-16-6.4-16-16s6.4-16 16-16h598.4c6.4 0 9.6-3.2 12.8-6.4s3.2-9.6 3.2-12.8l-60.8-345.6c-3.2-9.6-9.6-19.2-16-19.2h-611.2c-3.2 0-12.8 9.6-16 19.2l-169.6 617.6c-6.4 22.4-25.6 35.2-44.8 35.2h-144c-9.6 0-16-6.4-16-16s6.4-16 16-16h144c6.4 0 12.8-3.2 16-9.6l169.6-617.6c6.4-19.2 22.4-41.6 44.8-41.6h611.2c25.6 0 44.8 22.4 48 44.8l60.8 345.6c3.2 12.8 0 28.8-9.6 41.6-9.6 6.4-22.4 12.8-38.4 12.8zM441.6 118.4c-48 0-89.6-41.6-89.6-89.6s41.6-89.6 89.6-89.6 89.6 41.6 89.6 89.6-41.6 89.6-89.6 89.6zM441.6-28.8c-32 0-57.6 25.6-57.6 57.6s25.6 57.6 57.6 57.6 57.6-25.6 57.6-57.6-28.8-57.6-57.6-57.6zM918.4 118.4c-48 0-89.6-41.6-89.6-89.6s41.6-89.6 89.6-89.6c48 0 89.6 41.6 89.6 89.6s-41.6 89.6-89.6 89.6zM918.4-28.8c-32 0-57.6 25.6-57.6 57.6s25.6 57.6 57.6 57.6c32 0 57.6-25.6 57.6-57.6s-25.6-57.6-57.6-57.6zM592 352v192c0 9.6-6.4 16-16 16s-16-6.4-16-16v-192c0-9.6 6.4-16 16-16s16 6.4 16 16zM816 352v192c0 9.6-6.4 16-16 16s-16-6.4-16-16v-192c0-9.6 6.4-16 16-16s16 6.4 16 16zM1024 752c9.6 0 16 6.4 16 16v83.2c0 22.4-12.8 41.6-35.2 48l-227.2 57.6c-12.8 3.2-28.8 0-41.6-9.6-6.4-6.4-9.6-12.8-12.8-19.2l-195.2-67.2c-19.2-6.4-35.2-25.6-35.2-44.8v-48c0-9.6 6.4-16 16-16s16 6.4 16 16v48c0 6.4 6.4 12.8 12.8 16l179.2 60.8v-124.8c0-9.6 6.4-16 16-16s16 6.4 16 16v140.8c0 6.4 3.2 9.6 6.4 12.8s9.6 3.2 12.8 3.2l230.4-60.8c9.6-3.2 9.6-12.8 9.6-16v-80c0-9.6 6.4-16 16-16z" />
<glyph unicode="&#xe944;" glyph-name="caution" horiz-adv-x="1184" d="M592 99.2c-44.8 0-80-35.2-80-80s35.2-80 80-80 80 35.2 80 80c0 44.8-35.2 80-80 80zM592-28.8c-25.6 0-48 22.4-48 48s22.4 48 48 48 48-22.4 48-48-22.4-48-48-48zM592 681.6c-54.4 0-96-41.6-96-89.6l22.4-352c0-38.4 32-67.2 70.4-67.2s70.4 28.8 70.4 67.2l28.8 355.2c0 44.8-41.6 86.4-96 86.4zM627.2 236.8c0-19.2-19.2-35.2-38.4-35.2s-38.4 16-38.4 35.2l-22.4 352c0 32 28.8 57.6 64 57.6s64-25.6 64-57.6l-28.8-352zM115.2 0h281.6c9.6 0 16 6.4 16 16s-6.4 16-16 16h-281.6c-32 0-57.6 16-73.6 41.6-12.8 25.6-12.8 57.6 3.2 83.2l476.8 732.8c16 25.6 41.6 38.4 70.4 38.4s54.4-12.8 70.4-38.4l476.8-732.8c16-25.6 19.2-57.6 3.2-83.2s-41.6-41.6-73.6-41.6h-281.6c-9.6 0-16-6.4-16-16s6.4-16 16-16h281.6c41.6 0 80 22.4 102.4 60.8 19.2 38.4 19.2 80-3.2 115.2l-480 732.8c-22.4 32-57.6 51.2-96 51.2s-73.6-19.2-96-51.2l-476.8-732.8c-22.4-35.2-25.6-80-3.2-115.2 19.2-38.4 54.4-60.8 99.2-60.8z" />
<glyph unicode="&#xe945;" glyph-name="chair" horiz-adv-x="896" d="M652.8 435.2c0-9.6 3.2-16 12.8-19.2 0 0 0 0 3.2 0 6.4 0 16 6.4 16 12.8l51.2 348.8c6.4 44.8-9.6 92.8-38.4 124.8-28.8 38.4-73.6 57.6-121.6 57.6h-249.6c-48 0-92.8-19.2-124.8-54.4s-44.8-80-38.4-128l51.2-348.8c3.2-6.4 9.6-12.8 19.2-12.8s16 9.6 12.8 19.2l-51.2 345.6c-3.2 35.2 6.4 73.6 32 102.4 22.4 28.8 60.8 44.8 99.2 44.8h249.6c38.4 0 73.6-16 99.2-44.8s35.2-64 32-99.2l-54.4-348.8zM668.8-64c3.2 0 3.2 0 6.4 0 6.4 0 12.8 3.2 16 9.6 3.2 9.6-9.6 16-19.2 19.2-73.6 22.4-124.8 32-220.8 32v64c0 9.6-6.4 16-16 16s-19.2-3.2-19.2-12.8v-64c-96-3.2-198.4-32-204.8-32-9.6-3.2-9.6-12.8-6.4-19.2 3.2-9.6 12.8-12.8 22.4-9.6 3.2-3.2 227.2 67.2 441.6-3.2zM64 576h51.2c9.6 0 16 6.4 16 16s-9.6 16-16 16h-51.2c-19.2 0-35.2-12.8-48-25.6s-19.2-35.2-16-54.4c28.8-230.4 220.8-406.4 448-406.4s419.2 172.8 448 406.4c3.2 19.2-3.2 41.6-16 57.6-12.8 9.6-28.8 22.4-48 22.4h-48c-9.6 0-16-6.4-16-16s6.4-16 16-16h48c9.6 0 16-9.6 22.4-16s9.6-19.2 9.6-28.8c-25.6-214.4-204.8-380.8-416-380.8s-390.4 163.2-416 377.6c0 9.6 3.2 25.6 9.6 32s12.8 16 22.4 16z" />
<glyph unicode="&#xe946;" glyph-name="chair2" horiz-adv-x="800" d="M790.4 950.4c-6.4 3.2-16 0-22.4-6.4-121.6-240-137.6-438.4-137.6-496h-470.4c-22.4 0-41.6-16-48-35.2l-112-460.8c-3.2-9.6 3.2-16 12.8-19.2 0 0 3.2 0 3.2 0 6.4 0 12.8 6.4 16 12.8l112 460.8c3.2 3.2 9.6 9.6 16 9.6h473.6l108.8-467.2c3.2-6.4 9.6-12.8 16-12.8 0 0 3.2 0 3.2 0 9.6 3.2 12.8 9.6 12.8 19.2l-115.2 486.4c0 44.8 12.8 246.4 137.6 489.6 6.4 6.4 3.2 16-6.4 19.2z" />
<glyph unicode="&#xe947;" glyph-name="chat-bubble-single" horiz-adv-x="1120" d="M835.2 656c-44.8 0-80-35.2-80-80s35.2-80 80-80 80 35.2 80 80-38.4 80-80 80zM835.2 528c-25.6 0-48 22.4-48 48s22.4 48 48 48 48-22.4 48-48-22.4-48-48-48zM592 656c-44.8 0-80-35.2-80-80s35.2-80 80-80 80 38.4 80 80-35.2 80-80 80zM592 528c-25.6 0-48 22.4-48 48s22.4 48 48 48 48-19.2 48-48-22.4-48-48-48zM348.8 656c-44.8 0-80-35.2-80-80s35.2-80 80-80 80 35.2 80 80-35.2 80-80 80zM348.8 528c-25.6 0-48 22.4-48 48s22.4 48 48 48 48-22.4 48-48-19.2-48-48-48zM1072 960h-1024c-25.6 0-48-22.4-48-48v-704c0-25.6 22.4-48 48-48h192c9.6 0 16-6.4 16-16v-192c0-6.4 3.2-12.8 9.6-12.8 0-3.2 3.2-3.2 6.4-3.2s6.4 0 9.6 3.2l304 217.6c3.2 3.2 6.4 3.2 9.6 3.2h476.8c25.6 0 48 22.4 48 48v704c0 25.6-22.4 48-48 48zM1088 208c0-9.6-6.4-16-16-16h-476.8c-9.6 0-19.2-3.2-28.8-9.6l-278.4-198.4v160c0 25.6-22.4 48-48 48h-192c-9.6 0-16 6.4-16 16v704c0 9.6 6.4 16 16 16h1024c9.6 0 16-6.4 16-16v-704z" />
<glyph unicode="&#xe948;" glyph-name="chat-bubble" horiz-adv-x="1184" d="M204.8 316.8l-60.8-131.2c-3.2-6.4 0-12.8 3.2-19.2 3.2-3.2 6.4-3.2 12.8-3.2 3.2 0 3.2 0 6.4 0l217.6 99.2c25.6-3.2 48-3.2 70.4-3.2 249.6 0 451.2 156.8 451.2 348.8s-201.6 348.8-451.2 348.8-457.6-153.6-457.6-345.6c0-118.4 76.8-227.2 208-294.4zM451.2 928c230.4 0 419.2-140.8 419.2-316.8s-188.8-316.8-419.2-316.8c-22.4 0-44.8 0-70.4 6.4-3.2 0-6.4 0-9.6 0l-182.4-83.2 51.2 102.4c3.2 3.2 3.2 9.6 0 12.8s-3.2 6.4-9.6 9.6c-124.8 57.6-201.6 160-201.6 272 0 172.8 188.8 313.6 422.4 313.6zM230.4 534.4c6.4 0 9.6-3.2 16-3.2 19.2 0 38.4 9.6 51.2 25.6s16 35.2 12.8 54.4c-6.4 22.4-22.4 41.6-48 48s-51.2-3.2-67.2-22.4c-12.8-16-16-35.2-12.8-54.4 6.4-25.6 25.6-44.8 48-48zM220.8 614.4c6.4 6.4 16 12.8 25.6 12.8 3.2 0 6.4 0 9.6 0 9.6-3.2 19.2-12.8 22.4-22.4s0-19.2-6.4-28.8c-6.4-9.6-19.2-12.8-32-12.8-9.6 3.2-19.2 12.8-22.4 22.4-6.4 12.8-3.2 22.4 3.2 28.8zM419.2 534.4c6.4 0 9.6-3.2 16-3.2 19.2 0 38.4 9.6 51.2 25.6s16 35.2 12.8 54.4c-6.4 22.4-22.4 41.6-48 48s-51.2-3.2-67.2-22.4c-12.8-16-16-35.2-12.8-54.4 6.4-25.6 25.6-44.8 48-48zM409.6 614.4c6.4 6.4 16 12.8 25.6 12.8 3.2 0 6.4 0 9.6 0 9.6-3.2 19.2-12.8 22.4-22.4s0-19.2-6.4-28.8c-6.4-9.6-19.2-12.8-32-12.8-9.6 3.2-19.2 12.8-22.4 22.4-6.4 12.8-3.2 22.4 3.2 28.8zM608 534.4c6.4 0 9.6-3.2 16-3.2 19.2 0 38.4 9.6 51.2 25.6s16 35.2 12.8 54.4c-6.4 22.4-22.4 41.6-48 48s-51.2-3.2-67.2-22.4c-12.8-16-16-35.2-12.8-54.4 6.4-25.6 25.6-44.8 48-48zM598.4 614.4c6.4 6.4 16 12.8 25.6 12.8 3.2 0 6.4 0 9.6 0 9.6-3.2 19.2-12.8 22.4-22.4s0-19.2-6.4-28.8c-6.4-9.6-19.2-12.8-32-12.8-9.6 3.2-19.2 12.8-22.4 22.4-6.4 12.8-3.2 22.4 3.2 28.8zM956.8 569.6c-9.6 3.2-16-3.2-19.2-9.6-3.2-9.6 3.2-16 9.6-19.2 121.6-35.2 204.8-128 204.8-227.2 0-86.4-60.8-166.4-160-211.2-6.4-3.2-9.6-9.6-9.6-19.2l19.2-92.8-102.4 76.8c-3.2 3.2-6.4 3.2-12.8 3.2-22.4-3.2-41.6-3.2-60.8-3.2-118.4 0-230.4 60.8-275.2 144-3.2 6.4-12.8 9.6-22.4 6.4-6.4-3.2-9.6-12.8-6.4-22.4 51.2-96 176-163.2 304-163.2 19.2 0 38.4 0 60.8 3.2l131.2-99.2c3.2 0 6.4 0 9.6 0s6.4 0 9.6 3.2 9.6 9.6 6.4 16l-25.6 121.6c102.4 51.2 166.4 140.8 166.4 233.6 3.2 115.2-89.6 217.6-227.2 259.2z" />
<glyph unicode="&#xe949;" glyph-name="cheese" horiz-adv-x="1248" d="M1158.4 864l-96 64c-57.6 35.2-124.8 44.8-192 22.4l-752-246.4c0 0 0 0 0 0h-70.4c-25.6 0-48-22.4-48-48v-310.4c0-9.6 6.4-16 16-16 76.8 0 124.8-48 124.8-124.8s-48-124.8-124.8-124.8c-9.6 0-16-6.4-16-16v-64c0-64 41.6-64 64-64h1136c25.6 0 48 22.4 48 48v672c0 3.2 0 6.4 0 9.6 0 0 0 3.2 0 3.2 0 89.6-28.8 153.6-89.6 195.2zM880 918.4c57.6 16 118.4 9.6 166.4-19.2l96-64c41.6-28.8 67.2-73.6 73.6-134.4-6.4 3.2-9.6 3.2-16 3.2h-979.2l659.2 214.4zM1216-16c0-9.6-6.4-16-16-16h-1136c-22.4 0-32 0-32 32v48c86.4 6.4 140.8 67.2 140.8 156.8s-54.4 150.4-140.8 156.8v294.4c0 9.6 6.4 16 16 16h1152c9.6 0 16-6.4 16-16v-672zM512 358.4c-86.4 0-160-70.4-160-160s70.4-160 160-160c86.4 0 160 70.4 160 160s-73.6 160-160 160zM512 70.4c-70.4 0-128 57.6-128 128s57.6 128 128 128 128-57.6 128-128-57.6-128-128-128zM387.2 518.4c0 41.6-35.2 76.8-76.8 76.8s-76.8-35.2-76.8-76.8 35.2-76.8 76.8-76.8 76.8 32 76.8 76.8zM310.4 470.4c-25.6 0-44.8 19.2-44.8 44.8s19.2 44.8 44.8 44.8 44.8-19.2 44.8-44.8c0-22.4-19.2-44.8-44.8-44.8zM752 499.2c-32 0-60.8-25.6-60.8-60.8 0-32 25.6-60.8 60.8-60.8s60.8 25.6 60.8 60.8c-3.2 35.2-28.8 60.8-60.8 60.8zM752 412.8c-16 0-28.8 12.8-28.8 28.8s12.8 28.8 28.8 28.8 28.8-12.8 28.8-28.8c-3.2-16-16-28.8-28.8-28.8zM924.8 252.8c-41.6 0-76.8-35.2-76.8-76.8s35.2-76.8 76.8-76.8c41.6 0 76.8 35.2 76.8 76.8s-35.2 76.8-76.8 76.8zM924.8 128c-25.6 0-44.8 19.2-44.8 44.8s19.2 44.8 44.8 44.8c25.6 0 44.8-19.2 44.8-44.8s-19.2-44.8-44.8-44.8zM1043.2 576c-57.6 0-105.6-48-105.6-105.6s48-105.6 105.6-105.6 105.6 48 105.6 105.6-48 105.6-105.6 105.6zM1043.2 396.8c-38.4 0-73.6 32-73.6 73.6s32 73.6 73.6 73.6 73.6-32 73.6-73.6-32-73.6-73.6-73.6z" />
<glyph unicode="&#xe94a;" glyph-name="chef-cap" horiz-adv-x="1056" d="M176 387.2v-403.2c0-25.6 22.4-48 48-48h576c25.6 0 48 22.4 48 48v403.2c64 6.4 118.4 38.4 156.8 86.4 38.4 51.2 51.2 118.4 38.4 185.6-19.2 80-80 144-160 163.2-41.6 9.6-80 9.6-118.4-3.2-41.6 83.2-128 137.6-224 137.6-99.2 0-185.6-57.6-227.2-147.2-51.2 22.4-105.6 25.6-160 9.6-70.4-22.4-128-80-150.4-147.2-19.2-64-9.6-128 28.8-185.6 35.2-51.2 89.6-86.4 144-99.2zM816-16c0-9.6-6.4-16-16-16h-576c-9.6 0-16 6.4-16 16v144h608v-144zM35.2 662.4c19.2 57.6 67.2 105.6 128 124.8 19.2 6.4 41.6 9.6 60.8 9.6 32 0 60.8-6.4 89.6-22.4 3.2-3.2 9.6-3.2 12.8 0s6.4 6.4 9.6 9.6c32 86.4 112 140.8 204.8 140.8 86.4 0 166.4-51.2 201.6-131.2 3.2-6.4 12.8-12.8 19.2-9.6 35.2 16 73.6 16 112 6.4 67.2-16 121.6-70.4 137.6-137.6 12.8-57.6 3.2-115.2-32-160s-86.4-70.4-147.2-73.6c-9.6 0-16-6.4-16-16v-243.2h-128v160c0 9.6-6.4 16-16 16s-16-6.4-16-16v-160h-128v256c0 9.6-6.4 16-16 16s-16-6.4-16-16v-256h-128v160c0 9.6-6.4 16-16 16s-16-6.4-16-16v-160h-128v243.2c0 9.6-6.4 16-12.8 16-51.2 6.4-102.4 38.4-134.4 86.4s-41.6 102.4-25.6 156.8z" />
<glyph unicode="&#xe94b;" glyph-name="clip-board" horiz-adv-x="736" d="M352 512c-9.6 0-16-6.4-16-16s6.4-16 16-16h256c9.6 0 16 6.4 16 16s-6.4 16-16 16h-256zM608 352h-256c-9.6 0-16-6.4-16-16s6.4-16 16-16h256c9.6 0 16 6.4 16 16s-6.4 16-16 16zM608 192h-256c-9.6 0-16-6.4-16-16s6.4-16 16-16h256c9.6 0 16 6.4 16 16s-6.4 16-16 16zM262.4 524.8l-48-44.8-19.2 19.2c-6.4 6.4-16 6.4-22.4 0s-6.4-16 0-22.4l32-32c3.2-3.2 6.4-3.2 12.8-3.2s9.6 3.2 12.8 3.2l57.6 57.6c6.4 6.4 6.4 16 0 22.4s-19.2 6.4-25.6 0zM262.4 387.2l-44.8-44.8-19.2 19.2c-6.4 6.4-16 6.4-22.4 0s-6.4-16 0-22.4l32-32c3.2-3.2 6.4-3.2 12.8-3.2s9.6 3.2 12.8 3.2l57.6 57.6c6.4 6.4 6.4 16 0 22.4s-22.4 6.4-28.8 0zM262.4 217.6l-44.8-44.8-22.4 19.2c-6.4 6.4-16 6.4-22.4 0s-6.4-16 0-22.4l32-32c3.2-3.2 6.4-3.2 12.8-3.2s9.6 3.2 12.8 3.2l57.6 57.6c6.4 6.4 6.4 16 0 22.4s-19.2 6.4-25.6 0zM464 960h-192c-9.6 0-16-6.4-16-16v-48h-80c-25.6 0-48-22.4-48-48v-16h-80c-25.6 0-48-22.4-48-48v-800c0-25.6 22.4-48 48-48h640c25.6 0 48 22.4 48 48v800c0 25.6-22.4 48-48 48h-80v16c0 25.6-22.4 48-48 48h-80v48c0 9.6-6.4 16-16 16zM688 800c9.6 0 16-6.4 16-16v-800c0-9.6-6.4-16-16-16h-640c-9.6 0-16 6.4-16 16v800c0 9.6 6.4 16 16 16h80v-16c0-25.6 22.4-48 48-48h384c25.6 0 48 22.4 48 48v16h80zM560 864c9.6 0 16-6.4 16-16v-64c0-9.6-6.4-16-16-16h-384c-9.6 0-16 6.4-16 16v64c0 9.6 6.4 16 16 16h96c9.6 0 16 6.4 16 16v48h160v-48c0-9.6 6.4-16 16-16h96z" />
<glyph unicode="&#xe94c;" glyph-name="clip" horiz-adv-x="1056" d="M646.4 700.8c6.4 6.4 6.4 16 0 22.4s-16 6.4-22.4 0l-390.4-380.8c-25.6-25.6-38.4-57.6-38.4-92.8s12.8-70.4 38.4-92.8c51.2-51.2 137.6-51.2 192 0l444.8 435.2c41.6 41.6 64 96 64 153.6s-22.4 112-64 153.6c-86.4 83.2-227.2 83.2-313.6 0l-467.2-457.6c-57.6-57.6-89.6-131.2-89.6-211.2s32-153.6 89.6-208c57.6-57.6 134.4-86.4 211.2-86.4s153.6 28.8 214.4 86.4l534.4 521.6c6.4 6.4 6.4 16 0 22.4s-16 6.4-22.4 0l-534.4-521.6c-105.6-102.4-278.4-102.4-384 0-48 51.2-76.8 115.2-76.8 185.6s28.8 137.6 80 185.6l467.2 457.6c73.6 73.6 195.2 73.6 268.8 0 35.2-35.2 54.4-80 54.4-131.2s-19.2-96-54.4-131.2l-444.8-435.2c-41.6-38.4-105.6-38.4-147.2 0-19.2 19.2-28.8 44.8-28.8 70.4s9.6 54.4 28.8 73.6l390.4 380.8z" />
<glyph unicode="&#xe94d;" glyph-name="cloud-down" horiz-adv-x="1504" d="M1136 688c-3.2 0-9.6 0-12.8 0s-6.4 0-9.6 0c-44.8 160-195.2 272-361.6 272-208 0-384-169.6-384-380.8 0 0 0-3.2 0-3.2 0 3.2-38.4 6.4-57.6 6.4-169.6 0-310.4-147.2-310.4-323.2s140.8-323.2 310.4-323.2h313.6c9.6 0 16 6.4 16 16s-6.4 16-16 16h-313.6c-153.6 0-281.6 134.4-281.6 291.2s128 291.2 281.6 291.2c25.6 0 51.2-3.2 73.6-9.6 0 0 0 0 0 0 48-12.8 89.6-38.4 124.8-73.6 3.2-3.2 6.4-3.2 12.8-3.2s9.6 0 12.8 3.2c6.4 6.4 6.4 16 0 22.4-35.2 35.2-80 60.8-128 76.8 0 3.2 0 9.6 0 12.8 0 192 156.8 348.8 348.8 348.8 150.4 0 284.8-99.2 329.6-243.2-166.4-22.4-332.8-153.6-332.8-406.4v-249.6l-80 76.8c-6.4 6.4-16 6.4-22.4 0s-6.4-16 0-22.4l105.6-105.6c3.2-3.2 6.4-9.6 9.6-9.6 0 0 0 0 0 0 3.2 0 9.6 6.4 12.8 9.6l96 105.6c6.4 6.4 6.4 16 0 22.4s-16 6.4-22.4 0l-67.2-73.6v246.4c0 246.4 172.8 368 332.8 377.6 3.2 0 3.2 0 6.4 0s9.6 0 12.8 0c185.6 0 336-153.6 336-342.4 3.2-185.6-150.4-345.6-332.8-345.6h-227.2c-9.6 0-16-6.4-16-16s6.4-16 16-16h227.2c201.6 0 368 172.8 368 377.6 0 208-166.4 374.4-371.2 374.4z" />
<glyph unicode="&#xe94e;" glyph-name="cloud-up" horiz-adv-x="1568" d="M1187.2 681.6h-9.6c-6.4 0-9.6 0-16 0-48 163.2-201.6 278.4-377.6 278.4-217.6 0-393.6-176-393.6-393.6 0-3.2 0-3.2 0-6.4-44.8 9.6-92.8 9.6-137.6-3.2-131.2-28.8-224-124.8-246.4-246.4-16-96 6.4-188.8 67.2-259.2 60.8-73.6 153.6-115.2 252.8-115.2h179.2c150.4 0 307.2 102.4 307.2 272v105.6l73.6-76.8c6.4-6.4 16-6.4 22.4 0s6.4 16 0 22.4l-99.2 105.6c0 0 0 0 0 0-3.2 3.2-6.4 6.4-12.8 6.4-3.2 0-3.2 0-6.4 0s-3.2-3.2-6.4-3.2v0l-102.4-105.6c-6.4-6.4-6.4-16 0-22.4 3.2-3.2 6.4-3.2 12.8-3.2 3.2 0 9.6 0 12.8 3.2l76.8 76.8v-105.6c0-150.4-140.8-240-275.2-240h-179.2c-89.6 0-172.8 38.4-230.4 105.6-54.4 64-73.6 147.2-60.8 233.6 19.2 108.8 105.6 195.2 220.8 220.8 48 9.6 96 9.6 144-3.2 6.4 0 9.6 0 12.8 3.2s6.4 9.6 6.4 12.8c0 9.6 0 16 0 25.6 0 195.2 163.2 358.4 361.6 358.4 163.2 0 307.2-108.8 348.8-268.8 16-64 12.8-134.4-6.4-192-3.2-9.6 3.2-16 9.6-19.2 0 0 3.2 0 3.2 0 6.4 0 12.8 3.2 16 12.8 19.2 60.8 22.4 128 9.6 192 3.2 0 6.4 0 6.4 0h9.6c99.2 0 192-38.4 259.2-108.8 64-67.2 96-160 89.6-256-12.8-179.2-166.4-316.8-361.6-316.8h-259.2c-9.6 0-16-6.4-16-16s6.4-16 16-16h259.2c211.2 0 380.8 150.4 393.6 345.6 6.4 105.6-28.8 204.8-99.2 278.4-64 73.6-166.4 118.4-275.2 118.4z" />
<glyph unicode="&#xe94f;" glyph-name="cloud" horiz-adv-x="1568" d="M1187.2 675.2l-19.2-3.2c0 0-3.2 0-3.2 0 0 3.2-3.2 3.2-3.2 3.2-51.2 156.8-201.6 278.4-374.4 278.4-217.6 0-393.6-172.8-393.6-390.4 0-3.2 0-3.2 0-6.4-44.8 9.6-92.8 9.6-137.6-3.2-131.2-28.8-224-124.8-246.4-246.4-16-96 6.4-188.8 67.2-259.2 60.8-73.6 153.6-115.2 252.8-115.2h844.8c211.2 0 380.8 147.2 393.6 345.6 6.4 105.6-28.8 201.6-99.2 278.4s-176 118.4-281.6 118.4zM1536 284.8c-12.8-179.2-166.4-316.8-361.6-316.8h-848c-89.6 0-172.8 38.4-230.4 105.6-54.4 64-73.6 147.2-60.8 233.6 19.2 108.8 105.6 195.2 220.8 220.8 22.4 6.4 44.8 6.4 67.2 6.4 25.6 0 51.2-3.2 76.8-9.6 6.4 0 9.6 0 12.8 3.2s6.4 9.6 6.4 12.8c0 9.6 0 16 0 25.6 3.2 198.4 166.4 361.6 364.8 361.6 163.2 0 307.2-108.8 348.8-268.8 16-64 12.8-134.4-6.4-192-3.2-9.6 3.2-16 9.6-19.2 0 0 3.2 0 3.2 0 6.4 0 12.8 3.2 16 12.8 19.2 60.8 22.4 128 9.6 192h16c99.2 0 192-38.4 259.2-108.8 70.4-73.6 102.4-163.2 96-259.2z" />
<glyph unicode="&#xe950;" glyph-name="code-browser" horiz-adv-x="1152" d="M454.4 444.8c-6.4 6.4-16 6.4-22.4 0l-112-112c-3.2-3.2-3.2-6.4-3.2-12.8s3.2-9.6 3.2-12.8l112-112c3.2-3.2 6.4-3.2 12.8-3.2s9.6 0 12.8 3.2c6.4 6.4 6.4 16 0 22.4l-105.6 102.4 102.4 102.4c6.4 6.4 6.4 16 0 22.4zM636.8 198.4c3.2-3.2 6.4-3.2 12.8-3.2s9.6 0 12.8 3.2l112 112c6.4 6.4 6.4 16 0 22.4l-112 112c-6.4 6.4-16 6.4-22.4 0s-6.4-16 0-22.4l96-102.4-102.4-102.4c-3.2-3.2-3.2-12.8 3.2-19.2zM556.8 438.4l-54.4-224c-3.2-9.6 3.2-16 12.8-19.2 0 0 3.2 0 3.2 0 6.4 0 12.8 6.4 16 12.8l54.4 224c3.2 9.6-3.2 16-12.8 19.2-9.6 0-19.2-6.4-19.2-12.8zM0-16c0-25.6 22.4-48 48-48h1056c25.6 0 48 22.4 48 48v576c0 9.6-6.4 16-16 16s-16-6.4-16-16v-576c0-9.6-6.4-16-16-16h-1056c-9.6 0-16 6.4-16 16v576c0 9.6-6.4 16-16 16s-16-6.4-16-16v-576zM1104 960h-1056c-25.6 0-48-22.4-48-48v-256c0-25.6 22.4-48 48-48h1056c25.6 0 48 22.4 48 48v256c0 25.6-22.4 48-48 48zM1120 656c0-9.6-6.4-16-16-16h-1056c-9.6 0-16 6.4-16 16v256c0 9.6 6.4 16 16 16h1056c9.6 0 16-6.4 16-16v-256zM160 784c0-17.673-14.327-32-32-32s-32 14.327-32 32c0 17.673 14.327 32 32 32s32-14.327 32-32zM256 784c0-17.673-14.327-32-32-32s-32 14.327-32 32c0 17.673 14.327 32 32 32s32-14.327 32-32zM352 784c0-17.673-14.327-32-32-32s-32 14.327-32 32c0 17.673 14.327 32 32 32s32-14.327 32-32z" />
<glyph unicode="&#xe951;" glyph-name="code-clean" horiz-adv-x="1056" d="M748.8 438.4c-25.6-28.8-22.4-76.8 6.4-102.4l99.2-99.2c3.2-3.2 3.2-3.2 3.2-6.4s0-3.2-3.2-6.4l-99.2-96c-28.8-28.8-32-76.8-6.4-105.6 16-16 35.2-25.6 57.6-25.6 19.2 0 38.4 6.4 54.4 22.4l169.6 169.6c12.8 12.8 19.2 28.8 19.2 44.8s-6.4 32-19.2 44.8l-169.6 169.6c-32 25.6-86.4 25.6-112-9.6zM1014.4 230.4c0-9.6-3.2-16-9.6-22.4l-169.6-169.6c-16-16-48-16-64 3.2-16 16-12.8 44.8 6.4 60.8l99.2 99.2c6.4 6.4 12.8 16 12.8 28.8 0 9.6-3.2 19.2-12.8 28.8l-99.2 99.2c-16 16-19.2 44.8-6.4 60.8 9.6 9.6 19.2 16 35.2 16 12.8 0 22.4-3.2 32-12.8l169.6-169.6c3.2-6.4 6.4-12.8 6.4-22.4zM32 195.2c3.2-16 12.8-32 25.6-41.6l192-140.8c12.8-9.6 28.8-16 44.8-16 28.8 0 54.4 16 67.2 38.4 19.2 32 6.4 76.8-25.6 99.2l-112 83.2c-3.2 3.2-3.2 6.4-3.2 9.6l86.4 115.2c12.8 16 16 38.4 12.8 60.8s-16 38.4-35.2 51.2c-32 19.2-76.8 9.6-102.4-22.4l-140.8-188.8c-6.4-12.8-12.8-32-9.6-48zM70.4 224l140.8 188.8c9.6 12.8 22.4 19.2 38.4 19.2 6.4 0 16-3.2 19.2-6.4 9.6-6.4 19.2-16 19.2-28.8 3.2-12.8 0-25.6-6.4-35.2l-86.4-115.2c-12.8-19.2-9.6-41.6 9.6-54.4l112-83.2c19.2-12.8 25.6-38.4 16-57.6-12.8-22.4-44.8-28.8-64-16l-192 140.8c-6.4 9.6-12.8 16-12.8 25.6s0 16 6.4 22.4zM460.8-60.8c6.4-3.2 16-3.2 22.4-3.2 32 0 64 22.4 73.6 54.4l137.6 438.4c12.8 38.4-9.6 83.2-51.2 96-38.4 12.8-83.2-9.6-96-51.2l-137.6-438.4c-6.4-19.2-3.2-38.4 6.4-57.6s25.6-32 44.8-38.4zM441.6 25.6l134.4 438.4c6.4 19.2 22.4 32 41.6 32 3.2 0 9.6 0 12.8-3.2 22.4-6.4 35.2-32 28.8-54.4l-134.4-438.4c-6.4-22.4-32-35.2-54.4-28.8-9.6 3.2-19.2 9.6-25.6 22.4-6.4 9.6-6.4 19.2-3.2 32zM272 755.2c-9.6 0-16-6.4-16-16v-67.2h-38.4c-9.6 0-16-6.4-16-16s6.4-16 16-16h38.4v-38.4c0-9.6 6.4-16 16-16s16 9.6 16 16v38.4h67.2c9.6 0 16 6.4 16 16s-9.6 16-16 16h-67.2v67.2c0 9.6-6.4 16-16 16zM176 960c-9.6 0-16-6.4-16-16v-48h-25.6c-9.6 0-16-6.4-16-16s6.4-16 16-16h25.6v-22.4c0-9.6 6.4-16 16-16s16 6.4 16 16v22.4h44.8c9.6 0 16 6.4 16 16s-6.4 16-16 16h-44.8v48c0 9.6-6.4 16-16 16zM25.6 736h6.4v-28.8c0-9.6 6.4-16 16-16s16 6.4 16 16v28.8h28.8c9.6 0 16 6.4 16 16s-6.4 16-16 16h-28.8v6.4c0 9.6-6.4 16-16 16s-16-6.4-16-16v-6.4h-6.4c-9.6 0-16-6.4-16-16s6.4-16 16-16z" />
<glyph unicode="&#xe952;" glyph-name="code" d="M48-64h928c25.6 0 48 22.4 48 48v928c0 25.6-22.4 48-48 48h-928c-25.6 0-48-22.4-48-48v-928c0-25.6 22.4-48 48-48zM32 912c0 9.6 6.4 16 16 16h928c9.6 0 16-6.4 16-16v-928c0-9.6-6.4-16-16-16h-928c-9.6 0-16 6.4-16 16v928zM646.4 307.2c3.2-3.2 6.4-3.2 12.8-3.2s9.6 0 12.8 3.2l128 128c6.4 6.4 6.4 16 0 22.4l-128 128c-6.4 6.4-16 6.4-22.4 0s-6.4-16 0-22.4l118.4-118.4-118.4-118.4c-9.6-3.2-9.6-12.8-3.2-19.2zM348.8 307.2c3.2-3.2 6.4-3.2 9.6-3.2 6.4 0 9.6 3.2 12.8 6.4 6.4 6.4 3.2 16-3.2 22.4l-134.4 99.2 99.2 134.4c6.4 6.4 3.2 16-3.2 22.4s-16 3.2-22.4-3.2l-108.8-147.2c-6.4-6.4-3.2-16 3.2-22.4l147.2-108.8zM448 256c0 0 3.2 0 3.2 0 6.4 0 12.8 3.2 16 12.8l108.8 352c3.2 9.6-3.2 16-9.6 19.2-9.6 3.2-16-3.2-19.2-9.6l-108.8-352c-3.2-9.6 3.2-19.2 9.6-22.4z" />
<glyph unicode="&#xe953;" glyph-name="cog" horiz-adv-x="1696" d="M534.4 233.6c112 0 204.8 92.8 204.8 204.8s-92.8 204.8-204.8 204.8-204.8-92.8-204.8-204.8 92.8-204.8 204.8-204.8zM534.4 611.2c96 0 172.8-76.8 172.8-172.8s-76.8-172.8-172.8-172.8-172.8 76.8-172.8 172.8 76.8 172.8 172.8 172.8zM211.2 243.2l-38.4-35.2c-16-16-25.6-38.4-25.6-64s9.6-48 25.6-64c32-32 92.8-35.2 131.2 0l32 35.2c25.6-16 54.4-28.8 83.2-38.4v-51.2c0-48 44.8-89.6 96-89.6s96 41.6 96 89.6v41.6c54.4 9.6 89.6 25.6 121.6 48l38.4-38.4c35.2-35.2 96-35.2 128 0 35.2 35.2 35.2 92.8 0 128l-38.4 35.2c12.8 25.6 25.6 51.2 35.2 76.8h44.8c48 0 89.6 44.8 89.6 96s-41.6 96-89.6 96h-35.2c-9.6 54.4-25.6 89.6-48 121.6l38.4 38.4c35.2 35.2 35.2 92.8 0 128s-96 35.2-128 0l-41.6-41.6c-32 19.2-64 38.4-118.4 44.8v70.4c0 48-44.8 89.6-96 89.6s-96-41.6-96-89.6v-70.4c-28.8-9.6-54.4-22.4-80-38.4l-38.4 41.6c-35.2 35.2-92.8 35.2-128 0-16-19.2-25.6-41.6-22.4-67.2 0-25.6 9.6-48 28.8-64l38.4-38.4c-25.6-38.4-38.4-73.6-48-121.6h-64c-48 0-89.6-44.8-89.6-96s41.6-96 89.6-96h76.8c6.4-28.8 19.2-54.4 32-76.8zM41.6 416c0 35.2 28.8 64 57.6 64h80c9.6 0 16 6.4 16 12.8 6.4 57.6 22.4 89.6 51.2 134.4 3.2 6.4 3.2 16-3.2 19.2l-48 48c-9.6 12.8-16 28.8-16 44.8s6.4 32 16 41.6c22.4 19.2 60.8 19.2 80 0l44.8-51.2c6.4-6.4 12.8-6.4 19.2-3.2 28.8 19.2 60.8 35.2 96 44.8 9.6 3.2 12.8 9.6 12.8 16v83.2c0 32 28.8 57.6 64 57.6s64-28.8 64-57.6v-73.6c0-9.6 6.4-16 12.8-16 60.8-6.4 92.8-25.6 131.2-51.2 6.4-3.2 16-3.2 19.2 3.2l51.2 48c22.4 22.4 60.8 22.4 83.2 0s22.4-60.8 0-83.2l-48-48c-6.4-6.4-6.4-12.8-3.2-19.2 25.6-38.4 44.8-70.4 51.2-134.4 0-6.4 6.4-12.8 16-12.8h48c32 0 57.6-28.8 57.6-64s-28.8-64-57.6-64h-57.6c-6.4 0-12.8-3.2-16-12.8-9.6-32-25.6-64-41.6-92.8-3.2-6.4-3.2-16 3.2-19.2l48-44.8c22.4-22.4 22.4-60.8 0-83.2s-60.8-22.4-83.2 0l-48 48c-6.4 6.4-12.8 6.4-19.2 3.2-35.2-22.4-70.4-41.6-134.4-51.2-6.4 0-12.8-6.4-12.8-16v-54.4c0-32-28.8-57.6-64-57.6s-64 28.8-64 57.6v60.8c0 6.4-3.2 12.8-12.8 16-35.2 9.6-67.2 25.6-96 44.8-3.2 3.2-6.4 3.2-9.6 3.2s-9.6-3.2-12.8-6.4l-38.4-44.8c-22.4-22.4-60.8-22.4-83.2 0-9.6 9.6-16 25.6-16 41.6s6.4 28.8 16 41.6l48 44.8c6.4 6.4 6.4 12.8 3.2 19.2-19.2 28.8-32 60.8-41.6 92.8-3.2 3.2-9.6 6.4-16 6.4h-89.6c-32 0-57.6 28.8-57.6 64zM1622.4 640h-32c-6.4 28.8-16 64-32 92.8l22.4 25.6c9.6 12.8 19.2 28.8 19.2 48s-6.4 35.2-19.2 48c-25.6 25.6-70.4 25.6-92.8 3.2l-25.6-22.4c-22.4 12.8-54.4 25.6-83.2 32v35.2c0 35.2-28.8 64-64 64s-64-28.8-64-64v-38.4c-25.6-6.4-51.2-19.2-73.6-32l-25.6 25.6c-25.6 25.6-67.2 25.6-89.6 0-25.6-25.6-25.6-73.6 0-99.2l22.4-28.8c-16-28.8-25.6-64-32-92.8h-32c-35.2 0-64-28.8-64-64s28.8-64 64-64h35.2c6.4-22.4 16-44.8 32-67.2l-25.6-25.6c-25.6-25.6-25.6-60.8 0-86.4 12.8-12.8 25.6-16 44.8-16 16 0 28.8 6.4 44.8 19.2l22.4 25.6c22.4-12.8 48-25.6 76.8-32v-35.2c0-35.2 28.8-64 64-64s64 28.8 64 64v32c32 6.4 60.8 19.2 83.2 32l22.4-22.4c22.4-22.4 70.4-25.6 92.8 0 25.6 25.6 25.6 60.8 0 86.4l-25.6 22.4c16 22.4 25.6 44.8 32 67.2h38.4c35.2 0 64 28.8 64 64s-28.8 67.2-64 67.2zM1622.4 544h-51.2c-6.4 0-12.8-6.4-16-12.8-6.4-28.8-19.2-51.2-38.4-80-6.4-6.4-3.2-16 3.2-22.4l35.2-28.8c16-16 9.6-28.8 0-38.4-12.8-12.8-38.4-12.8-48 0l-32 32c-6.4 6.4-12.8 6.4-19.2 3.2-28.8-19.2-70.4-32-96-38.4-6.4 0-12.8-9.6-12.8-16v-44.8c0-19.2-12.8-32-32-32s-32 16-32 32v48c0 6.4-6.4 12.8-12.8 16-32 6.4-64 19.2-89.6 38.4-3.2 3.2-6.4 3.2-9.6 3.2s-9.6-3.2-12.8-6.4l-32-35.2c-9.6-9.6-16-9.6-22.4-9.6-9.6 0-19.2 3.2-22.4 6.4-12.8 12.8-12.8 28.8 0 41.6l38.4 32c6.4 6.4 6.4 16 3.2 22.4-19.2 28.8-32 51.2-38.4 80-3.2 6.4-9.6 12.8-16 12.8h-51.2c-19.2 0-32 12.8-32 32s16 32 32 32h44.8c6.4 0 16 6.4 16 12.8 6.4 32 19.2 76.8 35.2 105.6 3.2 6.4 3.2 12.8 0 19.2l-32 38.4c-12.8 12.8-12.8 41.6 0 54.4s32 12.8 44.8 0l35.2-35.2c6.4-6.4 12.8-6.4 19.2-3.2 25.6 16 57.6 32 86.4 38.4 6.4-3.2 12.8 3.2 12.8 12.8v48c0 19.2 12.8 32 32 32s32-16 32-32v-48c0-6.4 6.4-12.8 12.8-16 28.8-6.4 67.2-19.2 96-38.4 6.4-3.2 12.8-3.2 19.2 0l35.2 32c12.8 12.8 35.2 9.6 48-3.2 6.4-3.2 12.8-12.8 12.8-22.4s-3.2-19.2-9.6-25.6l-32-35.2c-3.2-6.4-6.4-12.8 0-19.2 19.2-28.8 32-73.6 38.4-105.6 0-6.4 6.4-12.8 16-12.8h44.8c19.2 0 32-12.8 32-32s-16-32-35.2-32zM1318.4 752c-83.2 0-153.6-67.2-153.6-153.6s67.2-153.6 153.6-153.6c83.2 0 153.6 67.2 153.6 153.6s-67.2 153.6-153.6 153.6zM1318.4 476.8c-67.2 0-121.6 54.4-121.6 121.6s54.4 121.6 121.6 121.6 121.6-54.4 121.6-121.6-54.4-121.6-121.6-121.6z" />
<glyph unicode="&#xe954;" glyph-name="color-card" d="M995.2 371.2c-3.2 9.6-6.4 19.2-12.8 28.8 0 0 0 0 0 0l-83.2 185.6c-6.4 9.6-12.8 16-19.2 25.6 0 0 0 0 0 0l-134.4 150.4c0 0 0 0 0 0s0 0 0 0l-176 121.6c-16 6.4-32 12.8-48 12.8l-179.2 57.6c-12.8 6.4-25.6 6.4-41.6 3.2 0 3.2-3.2 3.2-6.4 3.2h-182.4c-60.8 0-112-51.2-112-112v-832c0-44.8 35.2-80 80-80h864c44.8 0 80 35.2 80 80v160c0 9.6-3.2 19.2-6.4 28.8l-22.4 166.4zM963.2 364.8l16-118.4c-9.6 6.4-22.4 9.6-35.2 9.6h-710.4l630.4 163.2c44.8 12.8 86.4-12.8 99.2-54.4zM870.4 569.6l54.4-124.8c-22.4 9.6-44.8 9.6-67.2 3.2l-640-166.4 544 313.6c38.4 25.6 89.6 12.8 108.8-25.6zM707.2 745.6l16-9.6 86.4-96c-22.4 0-41.6-3.2-60.8-16l-544-313.6 412.8 416c22.4 28.8 60.8 35.2 89.6 19.2zM550.4 854.4l102.4-70.4c-22.4-3.2-44.8-12.8-60.8-32l-467.2-473.6 313.6 544c9.6 19.2 28.8 32 48 38.4 25.6 6.4 44.8 3.2 64-6.4zM272 915.2c19.2 12.8 41.6 12.8 60.8 9.6l124.8-41.6c-19.2-9.6-35.2-25.6-44.8-41.6l-339.2-585.6c0 0-3.2 0-3.2 0l166.4 611.2c3.2 22.4 19.2 38.4 35.2 48zM32 848c0 44.8 35.2 80 80 80h124.8c-16-12.8-25.6-32-32-51.2l-169.6-633.6c0 0 0 0 0-3.2 0 0-3.2-3.2-3.2-3.2v611.2zM992 16c0-25.6-22.4-48-48-48h-864c-25.6 0-48 22.4-48 48v160c0 25.6 22.4 48 48 48h864c25.6 0 48-22.4 48-48v-160zM160 163.2c-35.2 0-64-28.8-64-64s28.8-64 64-64 64 28.8 64 64-28.8 64-64 64zM160 67.2c-19.2 0-32 12.8-32 32s12.8 32 32 32 32-12.8 32-32-12.8-32-32-32z" />
<glyph unicode="&#xe955;" glyph-name="color-plate" horiz-adv-x="1088" d="M345.6 777.6c-44.8 0-80-35.2-80-80s35.2-80 80-80 80 35.2 80 80-35.2 80-80 80zM345.6 649.6c-25.6 0-48 22.4-48 48s22.4 48 48 48 48-22.4 48-48-19.2-48-48-48zM688 665.6c0 44.8-35.2 80-80 80s-80-35.2-80-80 35.2-80 80-80 80 35.2 80 80zM560 665.6c0 25.6 22.4 48 48 48s48-22.4 48-48-22.4-48-48-48-48 19.2-48 48zM732.8 524.8c-44.8 0-80-35.2-80-80s35.2-80 80-80 80 35.2 80 80-38.4 80-80 80zM732.8 396.8c-25.6 0-48 22.4-48 48s22.4 48 48 48 48-22.4 48-48-22.4-48-48-48zM652.8 288c-54.4 0-96-41.6-96-96s41.6-96 96-96 96 41.6 96 96-44.8 96-96 96zM652.8 128c-35.2 0-64 28.8-64 64s28.8 64 64 64 64-28.8 64-64-28.8-64-64-64zM544 960c-300.8 0-544-246.4-544-550.4 0-150.4 57.6-291.2 160-390.4 28.8-28.8 60.8-44.8 89.6-44.8 25.6 0 44.8 12.8 57.6 35.2 19.2 35.2 9.6 86.4-22.4 128-16 22.4-19.2 44.8-9.6 64 6.4 12.8 19.2 19.2 35.2 19.2 19.2 0 70.4-9.6 144-105.6 115.2-147.2 224-179.2 294.4-179.2 60.8 0 115.2 22.4 160 64 115.2 105.6 179.2 252.8 179.2 409.6 0 304-243.2 550.4-544 550.4zM886.4 22.4c-38.4-35.2-86.4-54.4-140.8-54.4-64 0-163.2 28.8-272 166.4-60.8 76.8-121.6 118.4-169.6 118.4-28.8 0-51.2-12.8-64-38.4-16-28.8-9.6-67.2 12.8-96 28.8-38.4 32-76.8 19.2-96-3.2-9.6-12.8-19.2-28.8-19.2-19.2 0-41.6 12.8-67.2 35.2-89.6 96-144 230.4-144 371.2 0 284.8 230.4 518.4 512 518.4s512-233.6 512-518.4c0-147.2-60.8-288-169.6-387.2z" />
<glyph unicode="&#xe956;" glyph-name="compass-math" horiz-adv-x="800" d="M406.4 659.2c25.6 0 48 22.4 48 48s-22.4 48-48 48-48-22.4-48-48 19.2-48 48-48zM406.4 723.2c9.6 0 16-6.4 16-16s-6.4-16-16-16-16 6.4-16 16 6.4 16 16 16zM9.6-60.8c3.2 0 3.2 0 6.4 0 6.4 0 12.8 3.2 16 9.6l140.8 316.8c67.2-41.6 144-64 224-64 86.4 0 166.4 25.6 236.8 73.6l134.4-326.4c3.2-6.4 9.6-9.6 16-9.6 3.2 0 3.2 0 6.4 0 9.6 3.2 12.8 12.8 9.6 22.4l-140.8 332.8c12.8 9.6 25.6 19.2 35.2 32 25.6 25.6 25.6 67.2 0 92.8s-64 25.6-89.6 3.2l-83.2 198.4c19.2 25.6 35.2 54.4 35.2 89.6 0 57.6-41.6 105.6-73.6 128v54.4c0 35.2-28.8 64-64 64s-64-28.8-64-64v-57.6c-64-22.4-86.4-73.6-86.4-128 0-32 9.6-64 28.8-89.6l-96-211.2c-3.2 3.2-9.6 6.4-12.8 9.6-25.6 25.6-70.4 25.6-96 0s-25.6-67.2 0-92.8c16-16 32-28.8 48-41.6l-140.8-320c-3.2-9.6 3.2-19.2 9.6-22.4zM384 892.8c0 19.2 12.8 32 32 32s32-12.8 32-32v-44.8c-32 3.2-22.4 3.2-32 3.2s-32 0-32-3.2v44.8zM406.4 819.2c60.8 0 112-51.2 112-112s-51.2-112-112-112-112 51.2-112 112 48 112 112 112zM316.8 595.2c25.6-19.2 54.4-32 89.6-32 32 0 64 12.8 89.6 32l83.2-198.4c-51.2-41.6-115.2-64-182.4-64-60.8 0-121.6 19.2-169.6 54.4l89.6 208zM115.2 393.6c6.4 6.4 16 9.6 25.6 9.6s19.2-3.2 25.6-9.6c60.8-60.8 140.8-96 227.2-96 80 0 153.6 28.8 214.4 80 0 0 0 0 0 0 3.2 3.2 9.6 9.6 12.8 12.8 12.8 12.8 35.2 12.8 48 0s12.8-35.2 0-48c-73.6-73.6-172.8-115.2-278.4-115.2-80 0-153.6 22.4-217.6 67.2 0 3.2-3.2 3.2-6.4 6.4 0 0 0 0 0 0-19.2 12.8-35.2 28.8-51.2 44.8-12.8 12.8-12.8 35.2 0 48z" />
<glyph unicode="&#xe957;" glyph-name="compass" horiz-adv-x="864" d="M499.2 793.6c19.2 16 28.8 41.6 28.8 70.4 0 54.4-41.6 96-96 96s-96-41.6-96-96c0-28.8 12.8-51.2 28.8-70.4-204.8-32-364.8-211.2-364.8-425.6 0-236.8 195.2-432 432-432s432 195.2 432 432c0 214.4-160 393.6-364.8 425.6zM368 864c0 35.2 28.8 64 64 64s64-28.8 64-64c0-35.2-28.8-64-64-64 0 0 0 0 0 0s0 0 0 0c-35.2 0-64 28.8-64 64zM448-32v64c0 9.6-6.4 16-16 16s-16-6.4-16-16v-64c-208 9.6-374.4 176-384 384h64c9.6 0 16 6.4 16 16s-6.4 16-16 16h-64c9.6 208 176 374.4 384 384v-64c0-9.6 6.4-16 16-16s16 6.4 16 16v64c208-9.6 374.4-176 384-384h-64c-9.6 0-16-6.4-16-16s6.4-16 16-16h64c-9.6-208-176-374.4-384-384zM649.6 608l-281.6-134.4c-3.2 0-6.4-3.2-6.4-6.4l-137.6-284.8c0-6.4 0-12.8 3.2-19.2 3.2 0 9.6-3.2 12.8-3.2s3.2 0 6.4 0l281.6 134.4c3.2 0 6.4 3.2 6.4 6.4l134.4 281.6c3.2 6.4 3.2 12.8-3.2 19.2-3.2 6.4-9.6 6.4-16 6.4zM512 320l-236.8-112 108.8 240 236.8 112-108.8-240zM403.2 339.2c12.8-12.8 28.8-19.2 44.8-19.2s32 6.4 44.8 19.2 19.2 28.8 19.2 44.8c0 16-6.4 32-19.2 44.8-25.6 25.6-67.2 25.6-89.6 0-12.8-12.8-19.2-28.8-19.2-44.8s6.4-32 19.2-44.8zM425.6 406.4c6.4 6.4 12.8 9.6 22.4 9.6s16-3.2 22.4-9.6c6.4-6.4 9.6-12.8 9.6-22.4s-3.2-16-9.6-22.4c-12.8-12.8-32-12.8-44.8 0-6.4 6.4-9.6 12.8-9.6 22.4s3.2 16 9.6 22.4z" />
<glyph unicode="&#xe958;" glyph-name="corner" d="M1024 300.8c-60.8 0-121.6 22.4-166.4 60.8l-268.8 220.8c-44.8 35.2-108.8 35.2-153.6 0l-262.4-220.8c-48-38.4-105.6-60.8-169.6-60.8v-38.4h1024l-3.2 38.4z" />
<glyph unicode="&#xe959;" glyph-name="crop" d="M1008 64h-848c-9.6 0-16 6.4-16 16v848c0 9.6-6.4 16-16 16s-16-6.4-16-16v-96h-96c-9.6 0-16-6.4-16-16s6.4-16 16-16h96v-720c0-25.6 22.4-48 48-48h720v-96c0-9.6 6.4-16 16-16s16 6.4 16 16v96h96c9.6 0 16 6.4 16 16s-6.4 16-16 16zM896 144c9.6 0 16 6.4 16 16v624c0 25.6-22.4 48-48 48h-624c-9.6 0-16-6.4-16-16s6.4-16 16-16h624c9.6 0 16-6.4 16-16v-624c0-9.6 6.4-16 16-16z" />
<glyph unicode="&#xe95a;" glyph-name="cross-circle" d="M512 960c-137.6 0-265.6-54.4-361.6-150.4s-150.4-224-150.4-361.6 54.4-265.6 150.4-361.6c96-96 224-150.4 361.6-150.4s265.6 54.4 361.6 150.4c96 96 150.4 224 150.4 361.6s-54.4 265.6-150.4 361.6c-96 96-224 150.4-361.6 150.4zM851.2 108.8c-89.6-89.6-211.2-140.8-339.2-140.8s-249.6 51.2-339.2 140.8-140.8 211.2-140.8 339.2 51.2 249.6 140.8 339.2 211.2 140.8 339.2 140.8 249.6-51.2 339.2-140.8 140.8-211.2 140.8-339.2-51.2-249.6-140.8-339.2zM704 640c-6.4 6.4-16 6.4-22.4 0l-169.6-169.6-169.6 169.6c-6.4 6.4-16 6.4-22.4 0s-6.4-16 0-22.4l169.6-169.6-169.6-169.6c-6.4-6.4-6.4-16 0-22.4 3.2-3.2 6.4-3.2 12.8-3.2s9.6 0 12.8 3.2l169.6 169.6 169.6-169.6c3.2-3.2 6.4-3.2 12.8-3.2s9.6 0 12.8 3.2c6.4 6.4 6.4 16 0 22.4l-176 169.6 169.6 169.6c6.4 6.4 6.4 16 0 22.4z" />
</font>
</defs>
</svg>
